<?xml version="1.0" standalone="no"?>
<!DOCTYPE svg PUBLIC "-//W3C//DTD SVG 1.1//EN" "http://www.w3.org/Graphics/SVG/1.1/DTD/svg11.dtd">
<svg xmlns="http://www.w3.org/2000/svg">
<metadata>Copyright (C) 2014 by original authors @ fontello.com</metadata>
<defs>
<font id="av-icons" horiz-adv-x="1000" >
<font-face font-family="av-icons" font-weight="400" font-stretch="normal" units-per-em="1000" ascent="850" descent="-150" />
<missing-glyph horiz-adv-x="1000" />
<glyph glyph-name="adjust_horiz" unicode="&#xe800;" d="m844 663l-94 0c0 34-28 62-62 62l-63 0c-34 0-62-28-62-62l-407 0c-17 0-31-14-31-32 0-17 14-31 31-31l407 0c0-34 28-62 62-62l63 0c34 0 62 28 62 62l94 0c17 0 31 14 31 31 0 18-14 32-31 32z m-156-63l-63 0 0 63 63 0 0-63z m156-187l-406 0c0 34-28 62-63 62l-62 0c-35 0-63-28-63-62l-94 0c-17 0-31-14-31-32 0-17 14-31 31-31l94 0c0-34 28-62 63-62l62 0c35 0 63 28 63 62l406 0c17 0 31 14 31 31 0 18-14 32-31 32z m-469-63l-62 0 0 63 62 0 0-63z m469-187l-219 0c0 34-28 62-62 62l-63 0c-34 0-62-28-62-62l-282 0c-17 0-31-14-31-32 0-17 14-31 31-31l282 0c0-34 28-62 62-62l63 0c34 0 62 28 62 62l219 0c17 0 31 14 31 31 0 18-14 32-31 32z m-281-63l-63 0 0 63 63 0 0-63z" horiz-adv-x="1000" />
<glyph glyph-name="adjust_vert" unicode="&#xe801;" d="m313 600l0 94c0 17-14 31-32 31s-31-14-31-31l0-94c-34 0-62-28-62-62l0-63c0-34 28-62 62-62l0-407c0-17 14-31 31-31s32 14 32 31l0 407c34 0 62 28 62 62l0 63c0 34-28 62-62 62z m-63-62l63 0 0-63-63 0 0 63z m313-250l0 406c0 17-14 31-32 31s-31-14-31-31l0-406c-34 0-62-28-62-63l0-62c0-35 28-63 62-63l0-94c0-17 14-31 31-31s32 14 32 31l0 94c34 0 62 28 62 63l0 62c0 35-28 63-62 63z m-63-63l63 0 0-62-63 0 0 62z m313 250l0 219c0 17-14 31-32 31s-31-14-31-31l0-219c-34 0-62-28-62-62l0-63c0-34 28-62 62-62l0-282c0-17 14-31 31-31s32 14 32 31l0 282c34 0 62 28 62 62l0 63c0 34-28 62-62 62z m-63-62l63 0 0-63-63 0 0 63z" horiz-adv-x="1000" />
<glyph glyph-name="archive_alt" unicode="&#xe802;" d="m938 725l-875 0c-35 0-63-28-63-62l0-125 1000 0 0 125c0 34-28 62-62 62z m-875-813c0-34 28-62 62-62l750 0c35 0 63 28 63 62l0 563-875 0 0-563z m312 438l250 0c35 0 63-28 63-62 0-35-28-63-63-63l-250 0c-34 0-62 28-62 63 0 34 28 62 62 62z" horiz-adv-x="1000" />
<glyph glyph-name="archive" unicode="&#xe803;" d="m938 725l-875 0c-35 0-63-28-63-62l0-125 1000 0 0 125c0 34-28 62-62 62z m0-125l-875 0 0 63 875 0 0-63z m-875-688c0-34 28-62 62-62l750 0c35 0 63 28 63 62l0 563-875 0 0-563z m62 501l750 0 0-501-750 0 0 501z m531-63l-312 0c-17 0-31-14-31-31 0-17 14-31 31-31l312 0c18 0 32 14 32 31 0 17-14 31-32 31z" horiz-adv-x="1000" />
<glyph glyph-name="arrow_down_alt" unicode="&#xe804;" d="m531 788c-259 0-468-210-468-469s209-469 468-469 469 210 469 469-210 469-469 469z m210-554l-188-187c-2-3-6-6-10-7-7-3-16-3-24 0-3 1-7 4-9 6-1 1-1 1-1 1l-187 187c-12 12-12 32 0 44 12 13 32 13 44 0l134-134 0 487c0 18 14 32 31 32s32-14 32-32l0-487 134 134c12 13 32 13 44 0 12-12 12-32 0-44z" horiz-adv-x="1000" />
<glyph glyph-name="arrow_left_alt" unicode="&#xe805;" d="m531 788c-259 0-468-210-468-469s209-469 468-469 469 210 469 469-210 469-469 469z m344-469c0-17-14-31-31-31l-487 0 134-135c12-12 12-32 0-44-12-12-32-12-44 0l-188 188c0 0 0 0 0 0-3 3-5 6-7 10-1 4-2 8-2 12 0 0 0 0 0 0l0 0c0 4 1 8 2 12 2 3 4 7 7 10 0 0 0 0 0 0l188 187c12 13 32 13 44 0 12-12 12-32 0-44l-134-134 487 0c17 0 31-14 31-31z" horiz-adv-x="1000" />
<glyph glyph-name="arrow_left_alt2" unicode="&#xe806;" d="m631 544c-12 12-32 12-44 0l-203-203c-6-6-9-14-9-22 0-8 3-16 9-22l203-203c12-12 32-12 44 0 12 12 12 32 0 44l-180 181 180 180c12 13 12 32 0 45z m-100 244c-259 0-468-210-468-469s209-469 468-469 469 210 469 469-210 469-469 469z m0-876c-224 0-406 183-406 407s182 406 406 406 407-182 407-406-183-407-407-407z" horiz-adv-x="1000" />
<glyph glyph-name="arrow_left_down_alt" unicode="&#xe807;" d="m200 650c-183-183-183-480 0-663 183-183 480-183 663 0 183 183 183 480 0 663-183 183-480 183-663 0z m564-143l-345-344 190 0c17 0 31-14 31-32 0-17-14-31-31-31l-265 0c-4 0-8 1-12 2-4 2-7 4-10 7 0 0 0 0 0 0 0 0 0 0-1 1-2 2-5 6-6 9-2 4-2 8-2 12 0 0 0 0 0 0l0 265c0 18 14 32 31 32s31-14 31-32l0-189 344 344c13 12 32 12 45 0s12-32 0-44z" horiz-adv-x="1000" />
<glyph glyph-name="arrow_left_down" unicode="&#xe808;" d="m156 350c-17 0-31-14-31-31l0-313c0 0 0 0 0 0 0-4 1-8 2-12 2-3 4-7 7-10 0 0 0 0 0 0 0 0 0 0 0 0 3-3 7-5 10-7 4-1 8-2 12-2l313 0c17 0 31 14 31 31 0 18-14 32-31 32l-237 0 634 634c12 12 12 32 0 44-12 12-32 12-44 0l-634-634 0 237c0 17-14 31-32 31z" horiz-adv-x="1000" />
<glyph glyph-name="arrow_left_right_alt" unicode="&#xe809;" d="m174 114c12 12 12 32 0 44l-67 67 549 0c18 0 32 14 32 31 0 18-14 32-32 32l-549 0 71 71c12 12 12 32 0 44-12 13-32 13-44 0l-125-125c-6-6-9-14-9-22 0-8 3-16 9-22l121-120c12-13 32-13 44 0z m817 351l-120 121c-13 12-32 12-45 0s-12-32 0-44l67-68-549 0c-17 0-31-14-31-31s14-31 31-31l549 0-71-72c-12-12-12-32 0-44 12-12 32-12 44 0l125 125c6 6 9 14 9 22 0 8-3 16-9 22z" horiz-adv-x="1000" />
<glyph glyph-name="arrow_left_right" unicode="&#xe80a;" d="m998 331c-2 4-4 7-7 10l-125 125c-12 12-32 12-44 0-13-12-13-32 0-44l71-72-786 0 71 72c13 12 13 32 0 44-12 12-32 12-44 0l-125-125c0 0 0 0 0 0-3-3-5-7-7-10-1-4-2-8-2-12l0 0c0 0 0 0 0 0 0-4 1-8 2-12 2-4 4-7 7-10 0 0 0 0 0 0l125-125c12-13 32-13 44 0 13 12 13 32 0 44l-71 72 786 0-71-72c-12-12-12-32 0-44 12-12 32-12 44 0l125 125c3 3 5 6 7 10 1 4 2 8 2 12 0 0 0 0 0 0l0 0c0 4-1 8-2 12z" horiz-adv-x="1000" />
<glyph glyph-name="arrow_left_up" unicode="&#xe80b;" d="m125 381c0-17 14-31 31-31s32 14 32 31l0 237 634-634c12-12 32-12 44 0 12 12 12 32 0 44l-634 635 237 0c17 0 31 14 31 31 0 17-14 31-31 31l-313 0c-4 0-8-1-12-2-3-2-7-4-10-7 0 0 0 0 0 0 0 0 0 0 0 0-3-3-5-7-7-10-1-4-2-8-2-12l0 0 0-313z" horiz-adv-x="1000" />
<glyph glyph-name="arrow_left" unicode="&#xe80c;" d="m125 381c0-4 1-8 2-12 2-3 4-7 7-9 0-1 0-1 0-1l188-187c12-13 32-13 44 0 12 12 12 32 0 44l-134 134 612 0c17 0 31 14 31 31 0 18-14 32-31 32l-612 0 134 134c12 12 12 32 0 44-12 12-32 12-44 0l-188-188c0 0 0 0 0 0-3-3-5-6-7-10-1-4-2-8-2-12l0 0c0 0 0 0 0 0z" horiz-adv-x="1000" />
<glyph glyph-name="arrow_right_down" unicode="&#xe80d;" d="m844 350c-17 0-31-14-31-31l0-237-635 634c-12 12-32 12-44 0-12-12-12-32 0-44l634-634-237 0c-17 0-31-14-31-32 0-17 14-31 31-31l313 0c4 0 8 1 12 2 7 4 13 10 17 17 1 4 2 8 2 12 0 0 0 0 0 0l0 313c0 17-14 31-31 31z" horiz-adv-x="1000" />
<glyph glyph-name="arrow_right_up" unicode="&#xe80e;" d="m134-16c12-12 32-12 44 0l635 634 0-237c0-17 14-31 31-31s31 14 31 31l0 313 0 0c0 4-1 8-2 12-4 7-10 13-17 17-4 1-8 2-12 2l-313 0c-17 0-31-14-31-31 0-17 14-31 31-31l237 0-634-635c-12-12-12-32 0-44z" horiz-adv-x="1000" />
<glyph glyph-name="arrow_right" unicode="&#xe80f;" d="m125 381c0-17 14-31 31-31l612 0-134-134c-12-12-12-32 0-44 12-12 32-12 44 0l188 187c3 3 5 7 7 10 1 4 2 8 2 12 0 0 0 0 0 0l0 0c0 4-1 8-2 12-2 4-4 7-7 10l-188 188c-12 12-32 12-44 0-12-12-12-32 0-44l134-134-612 0c-17 0-31-14-31-32z" horiz-adv-x="1000" />
<glyph glyph-name="arrow_up_down_alt" unicode="&#xe810;" d="m571-141c6-6 14-9 22-9 9 0 17 3 23 9l120 120c12 12 12 32 0 44s-32 13-44 0l-67-66 0 549c0 17-14 31-31 31s-31-14-31-31l0-550-72 72c-13 12-32 12-45 0-12-12-12-32 0-44l125-125z m-165 303c18 0 32 14 32 31l0 550 72-72c12-12 32-12 44 0 12 13 12 32 0 45l-125 125c-6 6-14 9-22 9-8 0-16-3-23-9l-120-121c-12-12-12-32 0-44 12-12 32-12 44 0l67 67 0-550c0-17 14-31 31-31z" horiz-adv-x="1000" />
<glyph glyph-name="arrow_up_down" unicode="&#xe811;" d="m634 672c12-13 32-13 44 0 13 12 13 32 0 44l-125 125c-3 3-6 5-10 7-7 3-16 3-24 0-3-2-7-4-10-7 0 0 0 0 0 0l-125-125c-12-12-12-32 0-44 12-12 32-12 44 0l72 71 0-786-72 71c-12 13-32 13-44 0-12-12-12-32 0-44l125-125c0 0 0 0 0 0 3-3 7-5 10-7 8-3 17-3 24 0 4 2 7 4 10 7l125 125c13 12 13 32 0 44-12 13-32 13-44 0l-71-71 0 786 71-71z" horiz-adv-x="1000" />
<glyph glyph-name="arrow_up" unicode="&#xe812;" d="m531-25c18 0 32 14 32 31l0 612 134-134c12-12 32-12 44 0 12 12 12 32 0 44l-188 188c-3 3-6 5-10 7-7 3-16 3-24 0-3-2-7-4-10-7 0 0 0 0 0 0l-187-188c-13-12-13-32 0-44 12-12 32-12 44 0l134 134 0-612c0-17 14-31 31-31z" horiz-adv-x="1000" />
<glyph glyph-name="back" unicode="&#xe813;" d="m134 359l188-187c12-13 32-13 44 0 12 12 12 32 0 44l-134 134 456 0c125 0 187-115 187-219 0-17 14-31 31-31s32 14 32 31c0 138-63 282-250 282l-456 0 134 134c12 12 12 32 0 44-12 12-32 12-44 0l-188-188c-12-12-12-32 0-44z" horiz-adv-x="1000" />
<glyph glyph-name="bag_alt" unicode="&#xe814;" d="m188-150l625 0c34 0 62 28 62 62l0 688c0 35-28 63-62 63l-126 0c-1 103-84 187-187 187s-186-84-187-187l-125 0c-35 0-63-28-63-63l0-688c0-34 28-62 63-62z m406 625l-188 0c-17 0-31 14-31 31 0 18 14 32 31 32l188 0c17 0 31-14 31-32 0-17-14-31-31-31z m-94 313c68 0 123-56 125-125l-250 0c2 69 57 125 125 125z" horiz-adv-x="1000" />
<glyph glyph-name="bag" unicode="&#xe815;" d="m188-150l625 0c34 0 62 28 62 62l0 688c0 35-28 63-62 63l-126 0c-1 103-84 187-187 187s-186-84-187-187l-125 0c-35 0-63-28-63-63l0-688c0-34 28-62 63-62z m625 750l0-688-625 0 0 688 625 0z m-313 188c68 0 123-56 125-125l-250 0c2 69 57 125 125 125z m-94-313l188 0c17 0 31 14 31 31 0 18-14 32-31 32l-188 0c-17 0-31-14-31-32 0-17 14-31 31-31z" horiz-adv-x="1000" />
<glyph glyph-name="balance" unicode="&#xe816;" d="m991 404l-151 274c0 0-1 1-2 1-7 12-22 18-35 13l-240-80 0 82c0 17-14 31-32 31s-31-14-31-31l0-102-261-87c-2-1-4-2-6-4 0 0 0 0 0 0-4-2-7-5-10-9 0-1-1-1-1-2l-155-273c-4-6-4-13-4-19 0-2 0-3 0-4 0-65 97-156 187-156s188 91 188 156c0 4-1 8-3 11 0 0 0 0 0 0 0 1 0 1 0 1-1 4-2 8-4 11l-136 240 205 69 0-520c0-17 14-31 31-31s32 14 32 31l0 540 184 62-113-204c-5-6-9-14-9-23 0-64 97-156 188-156s187 92 187 156c0 9-4 17-9 23z m-848-179l106 187 106-187-212 0z m568 188l102 185 101-185-203 0z" horiz-adv-x="1000" />
<glyph glyph-name="camera" unicode="&#xe817;" d="m938 538l-125 0c0 0-37 0-63 62-13 32-28 63-62 63l-250 0c-35 0-50-31-63-63-25-62-62-62-62-62l-63 0c0 34-28 62-62 62l-63 0c-34 0-62-28-62-62-35 0-63-28-63-63l0-500c0-35 28-63 63-63l875 0c34 0 62 28 62 63l0 258 0 55 0 187c0 35-28 63-62 63z m0-563l-875 0 0 250 284 0c15-106 105-187 216-187 112 0 204 85 216 195l159 0 0-258z m-532 281c0 86 70 157 157 157s156-71 156-157c0-86-70-156-156-156s-157 70-157 156z m372 32c-15 105-105 187-215 187s-201-82-216-187l-284 0 0 187 62 0 63 0 125 0c36 0 90 27 120 102 5 12 9 19 11 23l237 0c4-7 9-20 11-24 41-96 108-101 121-101l125 0 0-187-160 0z m-653 93a31-31 1080 1 0 63 0 31-31 1080 1 0-63 0z" horiz-adv-x="1000" />
<glyph glyph-name="cart_alt" unicode="&#xe818;" d="m938 600l-750 0c-5 0-10-2-14-3l-24 104c-4 14-16 24-31 24l-90 0c-17 0-31-14-31-31s14-31 31-31l65 0 39-166 55-272c0-2 1-4 1-6l-32-143c-2-10 0-19 6-27 6-7 15-11 25-11l709 0c17 0 31 14 31 31s-14 31-31 31l-670 0 14 64c3 0 6-1 9-1l570 0c34 0 55 6 72 46l101 312c18 56-21 79-55 79z m-750-688a63-63 1080 1 0 125 0 63-63 1080 1 0-125 0z m562 0a63-63 1080 1 0 125 0 63-63 1080 1 0-125 0z" horiz-adv-x="1000" />
<glyph glyph-name="circle_double_right" unicode="&#xe819;" d="m772 340l-185 209c-12 13-32 13-44 0s-13-32 0-44l165-187-165-188c-13-12-13-32 0-44s32-12 44 0l185 209c6 6 9 14 9 23 0 8-3 16-9 22z m-215-22c0 8-3 16-9 22l-185 209c-12 13-32 13-44 0s-13-32 0-44l165-187-165-188c-13-12-13-32 0-44s32-12 44 0l185 209c6 6 9 14 9 23z m-26 470c-259 0-468-210-468-469s209-469 468-469 469 210 469 469-210 469-469 469z m0-876c-224 0-406 183-406 407s182 406 406 406 407-182 407-406-183-407-407-407z" horiz-adv-x="1000" />
<glyph glyph-name="circle_double_up_alt" unicode="&#xe81a;" d="m531 788c-259 0-468-210-468-469s209-469 468-469 469 210 469 469-210 469-469 469z m233-682c-12-12-32-12-44 0l-188 166-187-166c-12-12-32-12-44 0-12 12-12 32 0 44l209 185c6 7 14 10 22 10 9 0 17-3 23-10l209-184c12-13 12-33 0-45z m0 224c-12-12-32-12-44 0l-188 166-187-166c-12-12-32-12-44 0-13 12-13 32 0 45l209 185c6 6 14 9 22 9 9 0 17-3 23-9l209-185c12-13 12-33 0-45z" horiz-adv-x="1000" />
<glyph glyph-name="circle_double_up" unicode="&#xe81b;" d="m555 560c-6 6-14 9-23 9-8 0-16-3-22-9l-209-185c-13-13-13-33 0-45 12-12 32-12 44 0l187 166 188-166c12-12 32-12 44 0 12 12 12 32 0 45l-209 185z m0-225c-6 7-14 10-23 10-8 0-16-3-22-10l-209-184c-13-13-13-33 0-45 12-12 32-12 44 0l187 166 188-166c12-12 32-12 44 0 12 12 12 32 0 45l-209 184z m-21 448c-258 0-467-209-467-466s209-467 467-467 466 209 466 467-209 466-466 466z m0-871c-223 0-404 182-404 405s181 404 404 404 404-182 404-404-182-405-404-405z" horiz-adv-x="1000" />
<glyph glyph-name="cart" unicode="&#xe81c;" d="m188-88a63-63 1080 1 0 125 0 63-63 1080 1 0-125 0z m562 0a63-63 1080 1 0 125 0 63-63 1080 1 0-125 0z m-752 782c0-17 14-31 31-31l65 0 39-166 55-272c0-2 1-4 1-6l-32-143c-2-10 0-19 6-27 6-7 15-11 25-11l709 0c17 0 31 14 31 31s-14 31-31 31l-670 0 14 64c3 0 6-1 9-1l570 0c34 0 55 6 72 46l101 312c18 56-21 79-55 79l-750 0c-5 0-10-2-14-3l-24 104c-4 14-16 24-31 24l-90 0c-17 0-31-14-31-31z m191-156l744 0-100-307c-1-2-2-4-3-6-2 0-5 0-10 0l-570 0 0 6-1 6-60 301z" horiz-adv-x="1000" />
<glyph glyph-name="chat_alt" unicode="&#xe81d;" d="m872 482c6-25 9-51 9-77 0-201-171-370-397-406 48-19 101-30 158-30 54 0 105 10 150 27 58-20 122-25 174-25-27 33-46 65-60 93 58 51 94 120 94 195 0 90-50 169-128 223z m-85-77c0 177-176 320-393 320s-394-143-394-320c0-92 48-175 125-233-14-37-39-86-80-136 78 0 180 11 257 58 30-5 60-9 92-9 217 1 393 144 393 320z" horiz-adv-x="1000" />
<glyph glyph-name="blocked" unicode="&#xe81e;" d="m500 850c-276 0-500-224-500-500s224-500 500-500 500 224 500 500-224 500-500 500z m0-125c207 0 375-168 375-375 0-81-26-156-70-217l-522 522c61 44 136 70 217 70z m-375-375c0 81 26 156 70 217l522-522 0 0c-61-44-136-70-217-70-207 0-375 168-375 375z" horiz-adv-x="1000" />
<glyph glyph-name="circle_down_alt" unicode="&#xe81f;" d="m531 788c-259 0-468-210-468-469s209-469 468-469 469 210 469 469-210 469-469 469z m225-413l-203-203c-6-6-14-9-22-9-8 0-16 3-22 9l-203 203c-12 12-12 32 0 44 13 12 32 12 45 0l180-181 181 181c12 12 32 12 44 0 12-12 12-32 0-44z" horiz-adv-x="1000" />
<glyph glyph-name="circle_down" unicode="&#xe820;" d="m712 419l-181-181-180 181c-13 12-32 12-45 0-12-12-12-32 0-44l203-203c6-6 14-9 22-9 8 0 16 3 22 9l203 203c12 12 12 32 0 44-12 12-32 12-44 0z m-178 364c-258 0-467-209-467-466 0-258 209-467 467-467 257 0 466 209 466 467 0 257-209 466-466 466z m0-871c-223 0-404 182-404 405 0 222 181 404 404 404 222 0 404-182 404-404 0-223-182-405-404-405z" horiz-adv-x="1000" />
<glyph glyph-name="chat" unicode="&#xe821;" d="m872 482c6-25 9-51 9-77 0-201-171-370-397-406 48-19 101-30 158-30 54 0 105 10 150 27 58-20 122-25 174-25-27 33-46 65-60 93 58 51 94 120 94 195 0 90-50 169-128 223z m-826-426c5-11 16-17 28-17 0 0 1 0 1 0 33 2 99 24 169 68 37-7 120-19 149-19 220 0 392 153 392 348 0 192-175 349-392 349s-391-156-391-349c0-89 39-176 108-240-15-38-36-74-61-107-7-9-9-22-3-33z m18 380c0 158 148 286 330 286s329-128 329-286c0-163-142-286-329-286-25 0-123 15-150 20-9 2-17 0-24-4-27-18-52-31-74-41 12 22 22 45 31 69 4 13 0 27-10 35-66 55-103 128-103 207z" horiz-adv-x="1000" />
<glyph glyph-name="blogger_circle" unicode="&#xe822;" d="m617 272l-234 0c-21 0-39-17-39-39s18-39 39-39l234 0c21 0 39 18 39 39s-18 39-39 39z m-234 156l117 0c21 0 39 18 39 39 0 21-18 39-39 39l-117 0c-21 0-39-18-39-39 0-22 18-39 39-39z m117 422c-276 0-500-224-500-500s224-500 500-500 500 224 500 500c0 276-224 500-500 500z m312-610c0-112-91-202-203-202l-218 0c-112 0-203 90-203 202l0 220c0 112 91 202 203 202l102 0c112 0 202-84 202-195 1-21 20-39 41-39l1 0 34 0c23 0 41-24 41-46l0-142z" horiz-adv-x="1000" />
<glyph glyph-name="blogger_square" unicode="&#xe823;" d="m813 850l-625 0c-104 0-188-84-188-187l0-625c0-104 84-188 188-188l625 0c103 0 187 84 187 188l0 625c0 103-84 187-187 187z m-1-610c0-112-91-202-203-202l-218 0c-112 0-203 90-203 202l0 220c0 112 91 202 203 202l102 0c112 0 202-84 202-195 1-21 20-39 41-39l1 0 34 0c23 0 41-24 41-46l0-142z m-195 32l-234 0c-21 0-39-17-39-39s18-39 39-39l234 0c21 0 39 18 39 39s-18 39-39 39z m-234 156l117 0c21 0 39 18 39 39 0 21-18 39-39 39l-117 0c-21 0-39-18-39-39 0-22 18-39 39-39z" horiz-adv-x="1000" />
<glyph glyph-name="check" unicode="&#xe824;" d="m431 50c1-1 2-2 3-3 2-1 4-1 6-2 3-1 5-2 7-3 3-1 5-1 8-1 3-1 7-1 10 0 2 0 3 0 4 1 5 1 9 3 13 5 0 0 1 1 2 1 2 2 5 3 7 6 2 1 2 4 4 6 0 0 0 0 0 0l372 597c14 20 8 47-12 60s-48 8-61-12l-344-552-190 185c-18 17-46 16-62-2-16-18-15-46 2-62l229-223c1 0 1 0 2-1z" horiz-adv-x="1000" />
<glyph glyph-name="circle_empty" unicode="&#xe825;" d="m500 725c-207 0-375-168-375-375s168-375 375-375 375 168 375 375-168 375-375 375z m0-687c-172 0-312 140-312 312s140 313 312 313 313-141 313-313-141-312-313-312z" horiz-adv-x="1000" />
<glyph glyph-name="circle_left_alt" unicode="&#xe826;" d="m531 788c-259 0-468-210-468-469s209-469 468-469 469 210 469 469-210 469-469 469z m100-650c12-12 12-32 0-44-12-12-32-12-44 0l-203 203c-6 6-9 14-9 22 0 8 3 16 9 22l203 203c12 12 32 12 44 0 12-13 12-32 0-45l-180-180 180-181z" horiz-adv-x="1000" />
<glyph glyph-name="circle_arrow_left_up_alt" unicode="&#xe827;" d="m200 650c-183-183-183-480 0-663 183-183 480-183 663 0 183 183 183 480 0 663-183 183-480 183-663 0z m564-564c-13-12-32-12-45 0l-344 345 0-190c0-17-14-31-31-31s-31 14-31 31l0 265 0 0c0 4 0 8 2 12 1 4 4 7 6 10 1 0 1 0 1 0 0 0 0 0 0 1 3 2 6 5 10 6 4 2 8 3 12 3l265 0c17 0 31-14 31-32 0-17-14-31-31-31l-190 0 345-344c12-13 12-32 0-45z" horiz-adv-x="1000" />
<glyph glyph-name="circle_arrow_right_alt" unicode="&#xe828;" d="m531 788c-259 0-468-210-468-469s209-469 468-469 469 210 469 469-210 469-469 469z m282-469c0 0 0 0 0 0 0-4-1-8-3-12-1-4-4-7-7-10l-187-188c-12-12-32-12-44 0-12 12-12 32 0 44l134 135-487 0c-17 0-31 14-31 31 0 17 14 31 31 31l487 0-134 134c-13 12-13 32 0 44 12 13 32 13 44 0l187-187c3-3 6-6 7-10 2-4 3-8 3-12l0 0z" horiz-adv-x="1000" />
<glyph glyph-name="circle_minus_alt" unicode="&#xe829;" d="m531 788c-259 0-468-210-468-469s209-469 468-469 469 210 469 469-210 469-469 469z m250-500l-500 0c-17 0-31 14-31 31 0 17 14 31 31 31l500 0c18 0 32-14 32-31 0-17-14-31-32-31z" horiz-adv-x="1000" />
<glyph glyph-name="circle_minus" unicode="&#xe82a;" d="m531 788c-259 0-468-210-468-469s209-469 468-469 469 210 469 469-210 469-469 469z m0-876c-224 0-406 183-406 407s182 406 406 406 407-182 407-406-183-407-407-407z m250 438l-500 0c-17 0-31-14-31-31 0-17 14-31 31-31l500 0c18 0 32 14 32 31 0 17-14 31-32 31z" horiz-adv-x="1000" />
<glyph glyph-name="circle_arrow_right_down_alt" unicode="&#xe82b;" d="m200 650c-183-183-183-480 0-663 183-183 480-183 663 0 183 183 183 480 0 663-183 183-480 183-663 0z m550-519c0 0 0 0 0 0 0-4-1-8-2-12-4-7-10-13-17-17-4-1-8-2-12-2l-265 0c-18 0-32 14-32 31 0 18 14 32 32 32l189 0-344 344c-12 12-12 32 0 44s32 12 44 0l345-344 0 189c0 18 14 32 31 32s31-14 31-32l0-265z" horiz-adv-x="1000" />
<glyph glyph-name="circle_arrow_right-up_alt" unicode="&#xe82c;" d="m200 650c-183-183-183-480 0-663 183-183 480-183 663 0 183 183 183 480 0 663-183 183-480 183-663 0z m550-144l0-265c0-17-14-31-31-31s-31 14-31 31l0 190-345-345c-12-12-32-12-44 0-12 13-12 32 0 45l344 344-189 0c-18 0-32 14-32 31 0 18 14 32 32 32l265 0c4 0 8-1 12-3 7-3 13-9 17-17 1-4 2-8 2-12l0 0z" horiz-adv-x="1000" />
<glyph glyph-name="circle_pause_alt" unicode="&#xe82d;" d="m500 850c-276 0-500-224-500-500s224-500 500-500 500 224 500 500-224 500-500 500z m-62-625c0-34-28-62-63-62s-62 28-62 62l0 250c0 35 28 63 62 63s63-28 63-63l0-250z m250 0c0-34-28-62-63-62s-62 28-62 62l0 250c0 35 28 63 62 63s63-28 63-63l0-250z" horiz-adv-x="1000" />
<glyph glyph-name="circle_pause" unicode="&#xe82e;" d="m500-150c276 0 500 224 500 500s-224 500-500 500-500-224-500-500 224-500 500-500z m0 938c241 0 438-197 438-438s-197-438-438-438-437 197-437 438 196 438 437 438z m-125-625c35 0 63 28 63 62l0 250c0 35-28 63-63 63s-62-28-62-63l0-250c0-34 28-62 62-62z m250 0c35 0 63 28 63 62l0 250c0 35-28 63-63 63s-62-28-62-63l0-250c0-34 28-62 62-62z" horiz-adv-x="1000" />
<glyph glyph-name="circle_arrow_up_alt" unicode="&#xe82f;" d="m531 788c-259 0-468-210-468-469s209-469 468-469 469 210 469 469-210 469-469 469z m210-429c-12-12-32-12-44 0l-134 134 0-487c0-17-14-31-32-31s-31 14-31 31l0 487-134-134c-12-12-32-12-44 0-12 12-12 32 0 44l187 188c0 0 0 0 0 0 3 3 7 5 10 7 8 3 17 3 24 0 4-2 7-4 10-7l188-188c12-12 12-32 0-44z" horiz-adv-x="1000" />
<glyph glyph-name="circle_check_alt" unicode="&#xe830;" d="m503 850c-276 0-500-224-500-500s224-500 500-500 500 224 500 500-224 500-500 500z m231-362l-239-366c0 0 0 0 0 0-2-2-2-4-4-6-2-2-5-3-7-5-1-1-2-1-2-1-4-3-8-5-13-6-1 0-2 0-4-1-3 0-7 0-10 0-3 0-5 1-8 1-2 1-4 2-7 3-2 1-4 1-6 3-1 1-2 2-3 3-1 0-1 1-2 1l-139 129c-18 16-19 44-3 62s44 19 62 2l101-93 211 322c13 20 40 26 61 13 20-13 26-40 12-61z" horiz-adv-x="1000" />
<glyph glyph-name="circle_plus_alt" unicode="&#xe831;" d="m531 788c-259 0-468-210-468-469s209-469 468-469 469 210 469 469-210 469-469 469z m250-500l-218 0 0-219c0-17-14-31-32-31s-31 14-31 31l0 219-219 0c-17 0-31 14-31 31 0 17 14 31 31 31l219 0 0 219c0 17 14 31 31 31s32-14 32-31l0-219 218 0c18 0 32-14 32-31 0-17-14-31-32-31z" horiz-adv-x="1000" />
<glyph glyph-name="circle_plus" unicode="&#xe832;" d="m531 788c-259 0-468-210-468-469s209-469 468-469 469 210 469 469-210 469-469 469z m0-876c-224 0-406 183-406 407s182 406 406 406 407-182 407-406-183-407-407-407z m250 438l-218 0 0 219c0 17-14 31-32 31s-31-14-31-31l0-219-219 0c-17 0-31-14-31-31 0-17 14-31 31-31l219 0 0-219c0-17 14-31 31-31s32 14 32 31l0 219 218 0c18 0 32 14 32 31 0 17-14 31-32 31z" horiz-adv-x="1000" />
<glyph glyph-name="box_selected" unicode="&#xe833;" d="m813 725l-625 0c-35 0-63-28-63-62l0-625c0-35 28-63 63-63l625 0c34 0 62 28 62 63l0 625c0 34-28 62-62 62z m0-687l-625 0 0 625 625 0 0-625z m-438 125l250 0c35 0 63 28 63 62l0 250c0 35-28 63-63 63l-250 0c-34 0-62-28-62-63l0-250c0-34 28-62 62-62z" horiz-adv-x="1000" />
<glyph glyph-name="box_empty" unicode="&#xe834;" d="m813 725l-625 0c-35 0-63-28-63-62l0-625c0-35 28-63 63-63l625 0c34 0 62 28 62 63l0 625c0 34-28 62-62 62z m0-687l-625 0 0 625 625 0 0-625z" horiz-adv-x="1000" />
<glyph glyph-name="box_checked" unicode="&#xe835;" d="m813 38l-625 0 0 625 461 0 39 62-500 0c-35 0-63-28-63-62l0-625c0-35 28-63 63-63l625 0c34 0 62 28 62 63l0 412-62-100 0-312z m105 742c-8 5-16 8-24 8-14 0-28-7-37-20l-340-490-131 150c-18 16-45 15-62-3s-15-45 3-62l158-180c1-2 2-3 3-4l4-5c1 0 2 0 2-1 1-1 2-2 3-3 3-2 6-3 9-4 1 0 1-1 2-1 4-1 9-2 13-2 0 0 1 0 1 0 12 0 24 4 32 14 2 1 2 3 4 5 0 0 0 0 0 1l372 537c14 20 8 47-12 60z" horiz-adv-x="1000" />
<glyph glyph-name="book" unicode="&#xe836;" d="m845 850l-282 0-282 0-123 0c-87 0-156-69-158-155l0 0 0-130 0-90 0-342 0-78 0-47c0-87 71-158 158-158l28 0 252 0 85 0 42 0 124 0c34 0 61 28 61 62l0 657c0 17-13 31-30 31l-562 0c-53 0-95 40-95 92 0 53 42 96 95 96l123 0 292 0 240 0 0-719c0-17 15-31 32-31s30 14 30 31l0 750c0 17-13 31-30 31z m-687-312l530 0 1-626-124 0-42 0-85 0-252 0-28 0c-53 0-95 43-95 96l0 47 0 78 0 342 0 90 0 3c26-19 59-30 95-30z" horiz-adv-x="1000" />
<glyph glyph-name="book_alt" unicode="&#xe837;" d="m158-150l28 0 375 0 64 0 22 0 102 0c34 0 62 28 62 62l0 135 0 22 0 500c0 17-14 31-31 31 0 0 0 0 0 0l-530 0c-2 0-5 0-8 0l-84 0c-53 0-95 40-95 92 0 53 41 96 93 96l125 0 344 0 250 0 0-719c0-17 13-31 30-31s33 14 33 31l0 750c0 17-16 31-33 31l-218 0-406 0-123 0c-87 0-156-69-158-155l0 0 0-130 0-90 0-342 0-78 0-47c0-87 71-158 158-158z" horiz-adv-x="1000" />
<glyph glyph-name="blogger" unicode="&#xe838;" d="m935 475l-54 0-2 0c-34 0-64 29-66 63 0 178-144 312-324 312l-164 0c-179 0-325-145-325-323l0-354c0-179 146-323 325-323l350 0c180 0 325 144 325 323l0 229c0 35-29 73-65 73z m-622 125l187 0c34 0 63-28 63-62s-29-63-63-63l-187 0c-35 0-63 28-63 63s28 62 63 62z m375-500l-375 0c-35 0-63 28-63 63s28 62 63 62l375 0c34 0 62-28 62-62s-28-63-62-63z" horiz-adv-x="1000" />
<glyph glyph-name="briefcase_alt" unicode="&#xe839;" d="m938 600l-188 0 0 125c0 35-28 63-62 63l-375 0c-35 0-63-28-63-63l0-125-187 0c-35 0-63-28-63-62l0-563c0-35 28-63 63-63l875 0c34 0 62 28 62 63l0 563c0 34-28 62-62 62z m-625 125l375 0 0-125-375 0 0 125z" horiz-adv-x="1000" />
<glyph glyph-name="circle_check" unicode="&#xe83a;" d="m503 850c-276 0-500-224-500-500s224-500 500-500 500 224 500 500-224 500-500 500z m0-938c-242 0-438 197-438 438s196 438 438 438 437-197 437-438-196-438-437-438z m219 637c-21 13-48 7-61-13l-211-322-101 93c-18 17-45 15-62-2s-15-46 3-62l139-129c1-1 1-1 2-1 1-1 2-2 3-3 2-2 4-2 6-3 3-1 5-2 7-3 3 0 5-1 8-1 3 0 7 0 10 0 2 1 3 1 4 1 5 1 9 3 13 5 0 1 1 1 2 2 2 2 5 3 7 5 2 2 2 4 4 6 0 0 0 0 0 0l239 366c14 21 8 48-12 61z" horiz-adv-x="1000" />
<glyph glyph-name="circle_question_alt" unicode="&#xe83b;" d="m500-150c276 0 500 224 500 500s-224 500-500 500-500-224-500-500 224-500 500-500z m0 875c124 0 250-71 250-230 0-93-46-166-136-215-27-15-51-43-51-55 0-34-28-62-63-62s-62 28-62 62c0 79 72 141 115 164 63 35 72 73 72 106 0 91-78 105-125 105-60 0-125-39-125-126 0-35-28-63-62-63s-63 28-63 63c0 163 129 251 250 251z m0-753c-36 0-64 29-64 65s28 64 64 64 64-29 64-64-28-65-64-65z" horiz-adv-x="1000" />
<glyph glyph-name="circle_close_alt" unicode="&#xe83c;" d="m531 788c-259 0-468-210-468-469s209-469 468-469 469 210 469 469-210 469-469 469z m217-296l-174-174 154-172c13-12 13-32 0-44s-32-13-44 0l-154 171-172-171c-12-13-32-13-44 0-12 12-12 32 0 44l174 174-154 172c-12 12-12 32 0 44 12 12 32 12 44 0l154-172 172 172c12 12 32 12 44 0 13-12 13-32 0-44z" horiz-adv-x="1000" />
<glyph glyph-name="briefcase" unicode="&#xe83d;" d="m938 600l-188 0 0 125c0 35-28 63-62 63l-375 0c-35 0-63-28-63-63l0-125-187 0c-35 0-63-28-63-62l0-563c0-35 28-63 63-63l875 0c34 0 62 28 62 63l0 563c0 34-28 62-62 62z m-875-62l250 0 375 0 250 0 0-563-875 0 0 563z m250 187l375 0 0-125-375 0 0 125z" horiz-adv-x="1000" />
<glyph glyph-name="building_alt" unicode="&#xe83e;" d="m63-150l812 0c35 0 63 28 63 62l0 376c0 34-28 62-63 62l-187 0c-35 0-63-28-63-62l0 500c0 34-28 62-62 62l-188 0c-34 0-62-28-62-62l0-250c0 34-28 62-63 62l-187 0c-35 0-63-28-63-62l0-626c0-34 28-62 63-62z m0 62l0 126 62 0 0-126-62 0z m62 376l0-63-62 0 0 63 62 0z m-62 62l0 63 62 0 0-63-62 0z m62-187l0-63-62 0 0 63 62 0z m63 62l0 63 62 0 0-63-62 0z m62-62l0-63-62 0 0 63 62 0z m-62 187l0 63 62 0 0-63-62 0z m0-438l0 126 62 0 0-126-62 0z m62 563l-62 0 0 63 62 0 0-63z m-125 0l-62 0 0 63 62 0 0-63z m375-563l0 126 63 0 0-126-63 0z m-62 626l0-63-63 0 0 63 63 0z m-63 62l0 63 63 0 0-63-63 0z m63-187l0-63-63 0 0 63 63 0z m0-125l0-63-63 0 0 63 63 0z m0-125l0-63-63 0 0 63 63 0z m62 62l0 63 63 0 0-63-63 0z m63-62l0-63-63 0 0 63 63 0z m-63 187l0 63 63 0 0-63-63 0z m0 125l0 63 63 0 0-63-63 0z m0 125l0 63 63 0 0-63-63 0z m63 125l-63 0 0 63 63 0 0-63z m-125 0l-63 0 0 63 63 0 0-63z m-63-687l63 0 0-126-63 0 0 126z m375 62l-62 0 0 63 62 0 0-63z m63 63l62 0 0-63-62 0 0 63z m0-125l62 0 0-126-62 0 0 126z m62 187l-62 0 0 63 62 0 0-63z m-125 0l-62 0 0 63 62 0 0-63z m-62-187l62 0 0-126-62 0 0 126z" horiz-adv-x="1000" />
<glyph glyph-name="circle_close" unicode="&#xe83f;" d="m531 788c-259 0-468-210-468-469s209-469 468-469 469 210 469 469-210 469-469 469z m0-876c-224 0-406 183-406 407s182 406 406 406 407-182 407-406-183-407-407-407z m173 624l-172-172-154 172c-12 12-32 12-44 0-12-12-12-32 0-44l154-172-174-174c-12-12-12-32 0-44 12-13 32-13 44 0l172 171 154-171c12-13 32-13 44 0s13 32 0 44l-154 172 174 174c13 12 13 32 0 44-12 12-32 12-44 0z" horiz-adv-x="1000" />
<glyph glyph-name="circle_question" unicode="&#xe840;" d="m500 850c-276 0-500-224-500-500s224-500 500-500 500 224 500 500-224 500-500 500z m0-938c-241 0-437 197-437 438s196 438 437 438 438-197 438-438-197-438-438-438z m-70 125a64-64 1080 1 0 129 0 64-64 1080 1 0-129 0z m65 688c-121 0-250-88-250-251 0-35 28-63 62-63s63 28 63 63c0 87 65 126 125 126 47 0 125-14 125-105 0-33-9-71-72-106-43-23-116-85-116-164 0-34 28-62 63-62s62 28 62 62c0 12 25 40 51 55 91 50 137 122 137 215 0 159-126 230-250 230z" horiz-adv-x="1000" />
<glyph glyph-name="circle_quotations_alt" unicode="&#xe841;" d="m500 850c-276 0-500-224-500-500s224-500 500-500 500 224 500 500-224 500-500 500z m251-491c-4-64-33-160-149-253-5-5-12-7-18-7-9 0-18 4-24 12-11 14-8 34 5 44 94 76 120 151 125 202-14-8-29-13-45-13-51 0-92 43-92 96 0 53 41 96 92 96 12 0 22-3 32-7l0 0c0 0 4-1 10-5 1 0 1 0 1 0 1 0 1 0 1 0 4-3 9-6 14-11 3-2 5-4 7-6 23-23 47-66 41-148z m-409-15c-51 0-92 43-92 96 0 53 41 96 92 96 12 0 22-3 32-7l0 0c0 0 4-1 10-5 1 0 1 0 1 0 1 0 1 0 1 0 4-3 9-6 14-11 3-2 5-4 7-6 23-23 47-66 41-148-4-64-33-160-149-253-5-5-12-7-18-7-9 0-18 4-24 12-11 14-8 34 5 44 94 76 120 151 125 202-14-8-29-13-45-13z" horiz-adv-x="1000" />
<glyph glyph-name="circle_dobule_down" unicode="&#xe842;" d="m717 307l-187-165-187 165c-12 13-32 13-45 0-12-12-12-32 0-44l210-185c6-6 14-9 22-9 8 0 17 3 23 9l209 185c12 12 12 32 0 44s-32 13-45 0z m0 225l-187-166-187 166c-12 12-32 12-45 0-12-13-12-33 0-45l209-185c7-6 15-9 23-9 8 0 17 3 23 9l209 185c12 12 12 32 0 45s-32 12-45 0z m-183 251c-258 0-467-209-467-466s209-467 467-467 466 209 466 467-209 466-466 466z m0-871c-223 0-404 182-404 405s181 404 404 404 404-182 404-404-182-405-404-405z" horiz-adv-x="1000" />
<glyph glyph-name="building" unicode="&#xe843;" d="m625 725l63 0 0-62-63 0z m125 0l63 0 0-62-63 0z m-125-125l63 0 0-62-63 0z m125 0l63 0 0-62-63 0z m-125-125l63 0 0-62-63 0z m125 0l63 0 0-62-63 0z m-125-125l63 0 0-62-63 0z m125 0l63 0 0-62-63 0z m-125-125l63 0 0-62-63 0z m125 0l63 0 0-62-63 0z m125 625l-312 0c-35 0-63-28-63-62l0-188-312 0c-35 0-63-28-63-62l0-626c0-34 28-62 63-62l687 0c35 0 63 28 63 62l0 876c0 34-28 62-63 62z m-500-938l-62 0 0 126 62 0 0-126z m63 0l0 126 0 62-63 0-62 0-63 0 0-62 0-126-62 0 0 626 312 0 0-626-62 0z m312 0l-62 0 0 126 62 0 0-126z m125 0l-62 0 0 126 0 62-63 0-62 0-63 0 0-188-62 0 0 626 0 250 312 0 0-876z m-625 563l63 0 0-62-63 0z m125 0l63 0 0-62-63 0z m-125-125l63 0 0-62-63 0z m125 0l63 0 0-62-63 0z m-125-125l63 0 0-62-63 0z m125 0l63 0 0-62-63 0z" horiz-adv-x="1000" />
<glyph glyph-name="calculator_alt" unicode="&#xe844;" d="m188-150l625 0c34 0 62 28 62 62l0 876c0 34-28 62-62 62l-625 0c-35 0-63-28-63-62l0-876c0-34 28-62 63-62z m500 313c-35 0-63 28-63 62 0 35 28 63 63 63s62-28 62-63c0-34-28-62-62-62z m62-125c0-35-28-63-62-63s-63 28-63 63c0 34 28 62 63 62s62-28 62-62z m-62 312c-35 0-63 28-63 63 0 34 28 62 63 62s62-28 62-62c0-35-28-63-62-63z m-438 250l0 125 500 0 0-125-500 0z m250-437c-34 0-62 28-62 62 0 35 28 63 62 63s63-28 63-63c0-34-28-62-63-62z m63-125c0-35-28-63-63-63s-62 28-62 63c0 34 28 62 62 62s63-28 63-62z m-63 312c-34 0-62 28-62 63 0 34 28 62 62 62s63-28 63-62c0-35-28-63-63-63z m-187 125c34 0 62-28 62-62 0-35-28-63-62-63s-63 28-63 63c0 34 28 62 63 62z m0-187c34 0 62-28 62-63 0-34-28-62-62-62s-63 28-63 62c0 35 28 63 63 63z m0-188c34 0 62-28 62-62 0-35-28-63-62-63s-63 28-63 63c0 34 28 62 63 62z" horiz-adv-x="1000" />
<glyph glyph-name="circle_double_down_alt" unicode="&#xe845;" d="m533 783c-257 0-466-209-466-466s209-467 466-467 467 209 467 467-209 466-467 466z m229-520l-209-185c-6-6-15-9-23-9-8 0-16 3-23 9l-209 185c-12 12-12 32 0 44 13 13 33 13 45 0l187-165 187 165c13 13 33 13 45 0s12-32 0-44z m0 224l-209-185c-6-6-15-9-23-9-8 0-16 3-23 9l-209 185c-12 12-12 32 0 44 13 13 33 13 45 1l187-166 187 166c13 12 33 12 45 0s12-33 0-45z" horiz-adv-x="1000" />
<glyph glyph-name="circle_quotations" unicode="&#xe846;" d="m500 850c-276 0-500-224-500-500s224-500 500-500 500 224 500 500-224 500-500 500z m0-938c-241 0-437 197-437 438s196 438 437 438 438-197 438-438-197-438-438-438z m-100 601c-5 5-10 8-14 11 0 0 0 0-1 0 0 0 0 0-1 0-6 4-10 5-10 5l0 0c-10 4-20 7-32 7-51 0-92-43-92-96 0-53 41-96 92-96 16 0 31 5 45 13-5-51-31-126-125-202-13-10-16-30-5-44 6-8 15-12 24-12 6 0 13 2 18 7 116 93 145 189 149 253 6 82-18 125-41 148-2 2-4 4-7 6z m303 0c-5 5-10 8-14 11 0 0 0 0-1 0 0 0 0 0-1 0-6 4-10 5-10 5l0 0c-10 4-21 7-32 7-51 0-92-43-92-96 0-53 41-96 92-96 16 0 31 5 45 13-5-51-31-126-125-202-13-10-16-30-5-44 6-8 15-12 24-12 6 0 13 2 18 7 116 93 145 189 149 253 6 82-19 125-41 148-2 2-4 4-7 6z" horiz-adv-x="1000" />
<glyph glyph-name="circle_right_alt" unicode="&#xe847;" d="m531 788c-259 0-468-210-468-469s209-469 468-469 469 210 469 469-210 469-469 469z m147-491l-203-203c-12-12-32-12-44 0-12 12-12 32 0 44l181 181-181 180c-12 13-12 32 0 45 12 12 32 12 44 0l203-203c6-6 9-14 9-22 0-8-3-16-9-22z" horiz-adv-x="1000" />
<glyph glyph-name="circle_double_left_alt" unicode="&#xe848;" d="m534 783c-258 0-467-209-467-466 0-258 209-467 467-467 257 0 466 209 466 467 0 257-209 466-466 466z m-14-695c-12-12-32-12-45 0l-185 209c-6 7-9 15-9 23 0 8 3 16 9 23l185 209c13 12 33 12 45 0s12-33 0-45l-166-187 166-187c12-13 12-33 0-45z m224 45c12-13 12-33 0-45s-32-12-44 0l-185 209c-7 7-10 15-10 23 0 8 3 16 10 23l185 209c12 12 32 12 44 0s12-33 0-45l-166-187 166-187z" horiz-adv-x="1000" />
<glyph glyph-name="calendar" unicode="&#xe849;" d="m996 674c-8 26-30 45-58 45l-63 0 0-63 0-34c0-52-42-94-94-94s-93 42-93 94l0 34 0 63-376 0 0-63 0-34c0-52-42-94-94-94-51 0-93 42-93 94l0 34 0 63-62 0c-29 0-51-19-59-45l-4 0 0-18 0-195 0-549c0-34 28-62 63-62l875 0c34 0 62 28 62 62l0 549 0 195 0 18-4 0z m-58-762l-875 0 0 501 875 0 0-501z m-720 678c18 0 32 14 32 32l0 197c0 17-14 31-32 31s-31-14-31-31l0-197c0-18 14-32 31-32z m563 0c18 0 32 14 32 32l0 197c0 17-14 31-32 31s-31-14-31-31l0-197c0-18 14-32 31-32z" horiz-adv-x="1000" />
<glyph glyph-name="calulator" unicode="&#xe84a;" d="m188-150l625 0c34 0 62 28 62 62l0 876c0 34-28 62-62 62l-625 0c-35 0-63-28-63-62l0-876c0-34 28-62 63-62z m0 938l625 0 0-876-625 0 0 876z m500-63l-375 0c-35 0-63-28-63-62l0-63c0-34 28-62 63-62l375 0c34 0 62 28 62 62l0 63c0 34-28 62-62 62z m0-125l-375 0 0 63 375 0 0-63z m-438-187a63-63 0 1 0 125 0 63-63 0 1 0-125 0z m0-188a63-63 0 1 0 125 0 63-63 0 1 0-125 0z m0-187a63-63 0 1 0 125 0 63-63 0 1 0-125 0z m188 375a63-63 0 1 0 125 0 63-63 0 1 0-125 0z m0-188a63-63 0 1 0 125 0 63-63 0 1 0-125 0z m0-187a63-63 0 1 0 125 0 63-63 0 1 0-125 0z m187 375a63-63 0 1 0 125 0 63-63 0 1 0-125 0z m0-188a63-63 0 1 0 125 0 63-63 0 1 0-125 0z m0-187a63-63 0 1 0 125 0 63-63 0 1 0-125 0z" horiz-adv-x="1000" />
<glyph glyph-name="circle_right" unicode="&#xe84b;" d="m678 341l-203 203c-12 12-32 12-44 0-12-13-12-32 0-45l181-180-181-181c-12-12-12-32 0-44 12-12 32-12 44 0l203 203c6 6 9 14 9 22 0 8-3 16-9 22z m-144 442c-258 0-467-209-467-466s209-467 467-467 466 209 466 467-209 466-466 466z m0-871c-223 0-404 182-404 405s181 404 404 404 404-182 404-404-182-405-404-405z" horiz-adv-x="1000" />
<glyph glyph-name="circle_double_left" unicode="&#xe84c;" d="m354 320l166 187c12 12 12 32 0 45s-32 12-45 0l-185-209c-6-7-9-15-9-23 0-8 3-16 9-23l185-209c13-12 33-12 45 0s12 32 0 45l-166 187z m390 232c-12 12-32 12-44 0l-185-209c-7-7-10-15-10-23 0-8 3-16 10-23l185-209c12-12 32-12 44 0s12 32 0 45l-166 187 166 187c12 12 12 32 0 45z m-213 236c-259 0-468-210-468-469s209-469 468-469 469 210 469 469-210 469-469 469z m0-876c-224 0-406 183-406 407s182 406 406 406 407-182 407-406-183-407-407-407z" horiz-adv-x="1000" />
<glyph glyph-name="circle_selected" unicode="&#xe84d;" d="m500 725c-207 0-375-168-375-375s168-375 375-375 375 168 375 375-168 375-375 375z m0-687c-172 0-312 140-312 312s140 313 312 313 313-141 313-313-141-312-313-312z m-187 312a188-188 1080 1 0 375 0 188-188 1080 1 0-375 0z" horiz-adv-x="1000" />
<glyph glyph-name="circle_double_right_alt" unicode="&#xe84e;" d="m534 783c-258 0-467-209-467-466s209-467 467-467 466 209 466 467-209 466-466 466z m-215-697c-13 12-13 32 0 44l165 188-165 187c-13 12-13 32 0 44s32 13 44 0l185-209c6-6 9-14 9-22 0-9-3-17-9-23l-185-209c-12-12-32-12-44 0z m453 209l-185-209c-12-12-32-12-44 0s-13 32 0 44l165 188-165 187c-13 12-13 32 0 44s32 13 44 0l185-209c6-6 9-14 9-22 0-9-3-17-9-23z" horiz-adv-x="1000" />
<glyph glyph-name="camera_alt" unicode="&#xe84f;" d="m938 538l-125 0c0 0-37 0-63 62-13 32-28 63-62 63l-250 0c-35 0-50-31-63-63-25-62-62-62-62-62l-63 0c0 34-28 62-62 62l-63 0c-34 0-62-28-62-62-35 0-63-28-63-63l0-125 347 0c44 74 123 125 216 125s172-51 215-125l222 0 0 125c0 35-28 63-62 63z m-719-125l-125 0c-17 0-31 14-31 31 0 17 14 31 31 31l31 0 63 0 31 0c17 0 31-14 31-31 0-17-14-31-31-31z m156-188a188-188 1080 1 0 375 0 188-188 1080 1 0-375 0z m438 0c0-138-112-250-250-250-139 0-250 112-250 250 0 22 3 42 8 63l-321 0 0-313c0-35 28-63 63-63l875 0c34 0 62 28 62 63l0 313-196 0c5-21 9-41 9-63z" horiz-adv-x="1000" />
<glyph glyph-name="cloud_download" unicode="&#xe850;" d="m818 350c58 134 22 219-7 260-45 63-126 97-197 83-124-23-176-107-176-280l0-145-73 72c-12 12-32 12-44 0s-12-32 0-44l126-126c6-6 14-9 23-9 8 0 16 3 22 9l127 127c12 12 12 32 0 44s-32 12-44 0l-75-75 0 147c0 180 62 207 126 219 40 7 100-10 134-58 42-59 34-146-23-245-6-10-5-24 2-33s19-15 31-13c7 1 30 5 44 5 68 0 124-56 124-125 0-69-57-125-125-125l-621-1c-73 11-129 80-129 157 0 77 57 143 134 154l27 3c15 3 26 16 26 31l0 34c0 112 69 204 164 218 17 3 29 19 26 36-3 17-18 29-36 26-125-19-216-137-217-280 0 0 1-7 1-7l0 0c-107-15-188-108-188-215 0-109 79-203 188-219l625 0c103 0 187 84 187 188 0 102-81 185-182 187z" horiz-adv-x="1000" />
<glyph glyph-name="cloud_download_alt" unicode="&#xe851;" d="m813 350c-3 0-5-1-7-1 4 21 7 42 7 64 0 172-140 312-313 312s-312-140-312-312c0-2 0-3 0-4-106-15-188-105-188-215 0-110 82-201 188-216l0-3 312 0-195 250 133 0 0 250c0 35 28 63 62 63s63-28 63-63l0-250 132 0-195-250 313 0c103 0 187 84 187 188s-84 187-187 187z" horiz-adv-x="1000" />
<glyph glyph-name="cloud_alt" unicode="&#xe852;" d="m813 350c-3 0-5-1-7-1 4 21 7 42 7 64 0 172-140 312-313 312s-312-140-312-312c0-2 0-3 0-4-106-15-188-105-188-215 0-110 82-201 188-216l0-3 625 0c103 0 187 84 187 188s-84 187-187 187z m0-312l-606 0c-3 1-7 2-11 2-76 11-133 77-133 154 0 77 57 143 134 154 31 4 54 31 53 62 0 2 0 4 0 6 2 136 113 247 250 247 138 0 250-113 250-250 0-17-2-34-5-51-4-19 1-38 13-53 12-14 30-22 48-22 1 0 2 0 2 0 2 0 5 0 7 1 68-2 123-57 123-125 0-69-57-125-125-125z" horiz-adv-x="1000" />
<glyph glyph-name="close" unicode="&#xe853;" d="m314 102c12-13 32-13 44 0l173 173 173-173c12-13 32-13 44 0 13 12 13 32 0 44l-173 173 173 173c13 12 13 32 0 44-12 12-32 12-44 0l-173-173-173 173c-12 12-32 12-44 0-12-12-12-32 0-44l173-173-173-173c-12-12-12-32 0-44z" horiz-adv-x="1000" />
<glyph glyph-name="clock" unicode="&#xe854;" d="m533 783c-119 0-239-45-330-136-182-183-182-478 0-660 92-91 211-137 330-137s239 46 330 137c183 182 183 477 0 660-91 91-210 136-330 136z m286-752c-76-76-178-119-286-119-108 0-209 43-285 119-77 76-119 178-119 286s42 209 119 286c76 76 177 118 285 118 108 0 210-42 286-118s119-178 119-286-43-210-119-286z m-100 319l-156 0 0 219c0 17-14 31-32 31s-31-14-31-31l0-250c0 0 0 0 0 0l0 0c0-17 14-31 31-31l188 0c17 0 31 14 31 31 0 17-14 31-31 31z" horiz-adv-x="1000" />
<glyph glyph-name="clock_alt" unicode="&#xe855;" d="m203 647c-182-183-182-478 0-660s478-183 660 0c183 182 183 477 0 660-182 182-477 182-660 0z m578-359l-248 0c-1 0-1-1-2-1-17 0-31 14-31 32l0 312c0 18 14 32 31 32s32-14 32-32l0-281 218 0c18 0 32-14 32-31 0-17-14-31-32-31z" horiz-adv-x="1000" />
<glyph glyph-name="clipboard" unicode="&#xe856;" d="m813 788l-188 0c0 34-28 62-62 62l-125 0c-35 0-63-28-63-62l-187 0c-35 0-63-28-63-63l0-813c0-34 28-62 63-62l625 0c34 0 62 28 62 62l0 813c0 35-28 63-62 63z m0-813l-625 0 0 750 125 0c0-34 28-62 62-62l63 0 125 0 62 0c35 0 63 28 63 62l125 0 0-750z m-563 531c0-17 14-31 31-31l438 0c17 0 31 14 31 31 0 18-14 32-31 32l-438 0c-17 0-31-14-31-32z m469-156l-438 0c-17 0-31-14-31-31 0-17 14-31 31-31l438 0c17 0 31 14 31 31 0 17-14 31-31 31z m0-187l-438 0c-17 0-31-14-31-32 0-17 14-31 31-31l438 0c17 0 31 14 31 31 0 18-14 32-31 32z" horiz-adv-x="1000" />
<glyph glyph-name="circle" unicode="&#xe857;" d="m441 527c-57 0-115-7-171-21-18-4-29-26-25-45s24-29 42-25c50 13 102 19 154 19 100 0 196-23 285-67 5-2 10-3 15-3 13 0 25 10 31 22 8 17 1 38-16 46-98 49-204 74-315 74z m0-290c-46 0-92-7-136-21-14-4-21-33-17-47 4-13 18-21 32-17 39 13 80 19 121 19 69 0 137-18 197-51 4-2 8-3 13-3 9 0 18 5 22 13 7 13 3 43-10 50-67 37-144 57-222 57z m267 75c-82 42-174 65-267 65-52 0-103-7-153-20-16-5-25-32-21-48 5-16 21-26 37-21 45 12 91 18 137 18 85 0 165-20 239-58 5-2 10-4 14-4 11 0 22 17 27 27 8 15 2 33-13 41z m-208 538c-276 0-500-224-500-500s224-500 500-500 500 224 500 500c0 276-224 500-500 500z m0-875c-207 0-375 168-375 375 0 207 168 375 375 375s375-168 375-375c0-207-168-375-375-375z" horiz-adv-x="1000" />
<glyph glyph-name="circle_up" unicode="&#xe858;" d="m553 466c-6 6-14 9-22 9-8 0-16-3-22-9l-203-203c-12-12-12-32 0-44 13-12 32-12 45 0l180 180 181-180c12-12 32-12 44 0 12 12 12 32 0 44l-203 203z m-20 317c-257 0-466-209-466-466s209-467 466-467 467 209 467 467-209 466-467 466z m0-871c-223 0-404 182-404 405s181 404 404 404 405-181 405-404-182-405-405-405z" horiz-adv-x="1000" />
<glyph glyph-name="circle_up_alt" unicode="&#xe859;" d="m531-150c259 0 469 210 469 469s-210 469-469 469-468-210-468-469 209-469 468-469z m-225 413l203 203c6 6 14 9 22 9 8 0 16-3 22-9l203-203c12-12 12-32 0-44-12-12-32-12-44 0l-181 180-180-180c-13-12-32-12-45 0-12 12-12 32 0 44z" horiz-adv-x="1000" />
<glyph glyph-name="circle_triangle-right_alt" unicode="&#xe85a;" d="m531 788c-259 0-468-210-468-469s209-469 468-469 469 210 469 469-210 469-469 469z m209-488l-242-191c-14-11-36-11-50 0l1 0c-7 5-11 12-11 19l0 382c0 8 4 15 10 20 0 0 0 0 0 0 14 11 36 11 50 0l241-191c0 0 0 0 1 0 13-11 13-28 0-39z" horiz-adv-x="1000" />
<glyph glyph-name="circle_triangle-left" unicode="&#xe85b;" d="m531 788c-259 0-468-210-468-469s209-469 468-469 469 210 469 469-210 469-469 469z m0-876c-224 0-406 183-406 407s182 406 406 406 407-182 407-406-183-407-407-407z m83 618c-13 11-35 11-49 0l-242-191c-14-11-14-28 0-39 0 0 1 0 1 0l241-191c14-11 36-11 49 0 0 0 0 0 0 0 7 5 11 12 11 19l0 382c0 8-4 15-11 20l0 0z" horiz-adv-x="1000" />
<glyph glyph-name="circle_triangle-left_alt" unicode="&#xe85c;" d="m531 788c-259 0-468-210-468-469s209-469 468-469 469 210 469 469-210 469-469 469z m94-660c0-7-4-14-11-19 0 0 0 0 0 0-13-11-35-11-49 0l-241 191c0 0-1 0-1 0-14 11-14 28 0 39l242 191c14 11 36 11 49 0l0 0c7-5 11-12 11-20l0-382z" horiz-adv-x="1000" />
<glyph glyph-name="circle_triangle_up" unicode="&#xe85d;" d="m531 788c-259 0-468-210-468-469s209-469 468-469 469 210 469 469-210 469-469 469z m0-876c-224 0-406 183-406 407s182 406 406 406 407-182 407-406-183-407-407-407z m19 553c-11 13-28 13-39 0 0-1 0-1 0-1l-191-241c-11-14-11-36 0-50 0 0 0 0 0 0 5-6 12-10 20-10l382 0c7 0 14 4 19 11l0-1c11 14 11 36 0 50l-191 242z" horiz-adv-x="1000" />
<glyph glyph-name="circle_triangle_up_alt" unicode="&#xe85e;" d="m531 788c-259 0-468-210-468-469s209-469 468-469 469 210 469 469-210 469-469 469z m210-552l0 0c-5-7-12-11-19-11l-382 0c-8 0-15 4-20 11 0 0 0 0 0 0-11 13-11 35 0 49l191 241c0 0 0 1 1 1 10 14 27 14 38 0l191-242c11-14 11-36 0-49z" horiz-adv-x="1000" />
<glyph glyph-name="circle_triangle_right" unicode="&#xe85f;" d="m531 788c-259 0-468-210-468-469s209-469 468-469 469 210 469 469-210 469-469 469z m0-876c-224 0-406 183-406 407s182 406 406 406 407-182 407-406-183-407-407-407z m208 427l-241 191c-14 11-36 11-50 0 0 0 0 0 0 0-6-5-10-12-10-20l0-382c0-7 4-14 11-19l-1 0c14-11 36-11 50 0l242 191c13 11 13 28 0 39-1 0-1 0-1 0z" horiz-adv-x="1000" />
<glyph glyph-name="circle_triangle_down" unicode="&#xe860;" d="m531 788c-259 0-468-210-468-469s209-469 468-469 469 210 469 469-210 469-469 469z m0-876c-224 0-406 183-406 407s182 406 406 406 407-182 407-406-183-407-407-407z m211 490c-5 6-12 11-20 11l-382 0c-7 0-14-5-19-11l0 0c-11-14-11-36 0-49l191-243c11-13 28-13 38 0 1 1 1 1 1 1l191 242c11 13 11 35 0 49 0 0 0 0 0 0z" horiz-adv-x="1000" />
<glyph glyph-name="circle_triangle_down_alt" unicode="&#xe861;" d="m531 788c-259 0-468-210-468-469s209-469 468-469 469 210 469 469-210 469-469 469z m210-435l-191-242c0 0 0 0 0-1-11-13-28-13-39 0l-191 243c-11 13-11 35 0 49l0 0c5 6 12 11 20 11l382 0c7 0 14-5 19-11 0 0 0 0 0 0 11-14 11-36 0-49z" horiz-adv-x="1000" />
<glyph glyph-name="circle_stop" unicode="&#xe862;" d="m500 850c-276 0-500-224-500-500s224-500 500-500 500 224 500 500-224 500-500 500z m0-938c-241 0-437 197-437 438s196 438 437 438 438-197 438-438-197-438-438-438z m125 626l-250 0c-34 0-62-28-62-63l0-250c0-34 28-62 62-62l250 0c35 0 63 28 63 62l0 250c0 35-28 63-63 63z" horiz-adv-x="1000" />
<glyph glyph-name="circle_stop_alt" unicode="&#xe863;" d="m500 850c-276 0-500-224-500-500s224-500 500-500 500 224 500 500-224 500-500 500z m188-625c0-34-28-62-63-62l-250 0c-34 0-62 28-62 62l0 250c0 35 28 63 62 63l250 0c35 0 63-28 63-63l0-250z" horiz-adv-x="1000" />
<glyph glyph-name="cloud_upload_alt" unicode="&#xe864;" d="m813 350c-3 0-5-1-7-1 4 21 7 42 7 64 0 172-140 312-313 312s-312-140-312-312c0-2 0-3 0-4-106-15-188-105-188-215 0-121 98-219 219-219l157 0c34 0 62 28 62 62l0 188-133 0 195 250 195-250-132 0 0-188c0-34 27-62 62-62l188 0c103 0 187 84 187 188s-84 187-187 187z" horiz-adv-x="1000" />
<glyph glyph-name="datareport_alt" unicode="&#xe865;" d="m125 850c-34 0-62-28-62-62l0-876c0-34 28-62 62-62l813 0c34 0 62 28 62 62l0 876c0 34-28 62-62 62l-813 0z m750-340l0-535-187 0 0 535 187 0z m-250 153l0-688-187 0 0 688 187 0z m-250-382l0-306-187 0 0 306 187 0z" horiz-adv-x="1000" />
<glyph glyph-name="datareport" unicode="&#xe866;" d="m63-88c0-34 28-62 62-62l750 0c35 0 63 28 63 62l0 876c0 34-28 62-63 62l-750 0c-34 0-62-28-62-62l0-876z m62 876l750 0 0-876-750 0 0 876z m125-500l125 0 0-250-125 0z m188 312l125 0 0-562-125 0z m187-125l125 0 0-437-125 0z" horiz-adv-x="1000" />
<glyph glyph-name="cloud_upload" unicode="&#xe867;" d="m814 350c-3 0-5 0-8 0 4 21 7 42 7 63 0 172-141 312-313 312-172 0-312-139-313-309 0 0 1-7 1-7l0 0c-107-15-188-108-188-215 0-109 79-203 188-219l156 0c17 0 31 14 31 31s-14 32-31 32l-152-1c-73 11-129 80-129 157 0 77 57 143 134 154l27 3c15 3 26 16 26 31l0 34c0 136 112 247 250 247 138 0 250-113 250-250 0-17-2-34-5-51l-8-40c-2-10 1-20 7-27 7-8 17-12 27-10 1 0 21 3 43 3 68 0 124-56 124-125 0-69-57-125-125-125l-219 0c-88 0-94 52-94 62l0 207 74-73c12-13 32-13 44 0 12 12 12 32 0 44l-126 125c-6 7-14 10-22 10 0 0-1 0-1 0-9 0-17-4-23-10l-126-126c-12-12-12-32 0-44 12-12 32-12 44 0l74 73 0-206c0-43 32-125 156-125l219 0c103 0 187 84 187 188s-83 187-186 187z" horiz-adv-x="1000" />
<glyph glyph-name="cloud" unicode="&#xe868;" d="m813 350c-3 0-5-1-7-1 4 21 7 42 7 64 0 172-140 312-313 312s-312-140-312-312c0-2 0-3 0-4-106-15-188-105-188-215 0-110 82-201 188-216l0-3 625 0c103 0 187 84 187 188s-84 187-187 187z" horiz-adv-x="1000" />
<glyph glyph-name="cogs" unicode="&#xe869;" d="m31 313l108 4c13-17 28-32 44-46l-7-108c12-7 24-13 37-19 13-5 26-10 39-14l74 80c21-3 42-3 63-1l72-82c26 7 52 18 76 31l-3 108c16 13 31 28 45 44l108-7c7 12 13 24 19 37 5 13 10 26 14 39l-80 74c3 21 3 42 1 63l82 72c-7 26-18 52-31 77l-108-4c-13 16-28 31-44 45l7 108c-12 7-24 13-37 19-13 5-26 10-39 14l-74-80c-21 3-42 3-63 1l-72 82c-26-7-52-18-77-31l4-108c-16-13-31-28-45-44l-108 7c-7-12-13-24-19-37-5-13-10-26-14-39l80-74c-3-21-3-42-1-63l-82-72c7-26 18-52 31-76z m405 348c95-41 139-152 98-247s-152-139-247-98-139 152-98 247 152 139 247 98z m-168-172a94-94 1080 1 0 187 0 94-94 1080 1 0-187 0z m671-375l-26 9 12 25 27 57c-10 13-22 24-34 35l-57-28-25-11-9 25-22 60c-8 1-16 2-24 2s-16-1-24-2l-21-60-9-26-25 12-57 27c-13-10-24-21-34-34l27-57 12-25-26-9-60-21c-1-8-1-16-1-24s0-16 1-24l60-22 26-9-12-25-27-57c10-12 21-24 34-34l57 27 25 12 9-26 21-60c8-1 16-1 24-1s16 0 24 1l22 60 9 26 25-12 57-27c12 10 24 22 34 34l-27 57-12 25 26 9 60 22c1 8 1 16 1 24s0 16-1 24l-60 21z m-158-92c-26 0-47 21-47 47 0 26 21 47 47 47s47-21 47-47c0-26-21-47-47-47z" horiz-adv-x="1000" />
<glyph glyph-name="cog" unicode="&#xe86a;" d="m860 454c-8 27-18 53-32 78l62 130c-23 29-49 55-78 78l-130-62c-25 14-51 24-78 32l-49 137c-18 2-36 3-55 3s-37-1-55-3l-49-137c-27-8-53-18-77-32l-131 62c-29-23-55-49-78-78l62-130c-14-25-24-51-32-78l-137-49c-2-18-3-36-3-55s1-37 3-55l137-49c8-27 18-53 32-78l-62-130c23-29 49-55 78-78l131 62c24-14 50-24 77-32l49-137c18-2 36-3 55-3s37 1 55 3l49 137c27 8 53 18 78 32l130-62c29 23 55 49 78 78l-62 131c14 24 24 50 32 77l137 49c2 18 3 36 3 55s-1 37-3 55l-137 49z m-360-354c-138 0-250 112-250 250 0 138 112 250 250 250s250-112 250-250c0-138-112-250-250-250z m-125 250a125-125 1080 1 0 250 0 125-125 1080 1 0-250 0z" horiz-adv-x="1000" />
<glyph glyph-name="delicious_square" unicode="&#xe86b;" d="m500 600l250 0 0-251-250 0z m313 250l-625 0c-104 0-188-84-188-187l0-625c0-104 84-188 188-188l625 0c103 0 187 84 187 188l0 625c0 103-84 187-187 187z m0-501l0-280 0-9c0-12-10-22-23-22l-9 0-281 0-281 0c-17 0-31 14-31 31l0 280 0 282 0 9c0 13 10 23 22 23l9 0 281 0 281 0c18 0 32-14 32-32l0-282z m-563 0l250 0 0-249-250 0z" horiz-adv-x="1000" />
<glyph glyph-name="delicious_circle" unicode="&#xe86c;" d="m500 850c-276 0-500-224-500-500s224-500 500-500 500 224 500 500c0 276-224 500-500 500z m313-501l0-280 0-9c0-12-10-22-23-22l-9 0-281 0-281 0c-17 0-31 14-31 31l0 280 0 282 0 9c0 13 10 23 22 23l9 0 281 0 281 0c18 0 32-14 32-32l0-282z m-563 0l250 0 0-249-250 0z m250 251l250 0 0-251-250 0z" horiz-adv-x="1000" />
<glyph glyph-name="zoom_out" unicode="&#xe86d;" d="m594 850c-225 0-406-182-406-406 0-97 33-185 90-255l-265-265c-17-17-17-44 0-61 17-17 44-17 61 0l265 265c70-57 158-90 255-90 224 0 406 181 406 406s-182 406-406 406z m0-750c-190 0-344 154-344 344s154 344 344 344 344-155 344-344-155-344-344-344z m187 375l-375 0c-17 0-31-14-31-31 0-17 14-31 31-31l375 0c18 0 32 14 32 31 0 17-14 31-32 31z" horiz-adv-x="1000" />
<glyph glyph-name="zoom_out_alt" unicode="&#xe86e;" d="m594 850c-225 0-406-182-406-406 0-97 33-185 90-255l-265-265c-17-17-17-44 0-61 17-17 44-17 61 0l265 265c70-57 158-90 255-90 224 0 406 181 406 406s-182 406-406 406z m187-437l-375 0c-17 0-31 14-31 31 0 17 14 31 31 31l375 0c18 0 32-14 32-31 0-17-14-31-32-31z" horiz-adv-x="1000" />
<glyph glyph-name="zoom_in" unicode="&#xe86f;" d="m594 850c-225 0-406-182-406-406 0-97 33-185 90-255l-265-265c-17-17-17-44 0-61 17-17 44-17 61 0l265 265c70-57 158-90 255-90 224 0 406 181 406 406s-182 406-406 406z m0-750c-190 0-344 154-344 344s154 344 344 344 344-155 344-344-155-344-344-344z m187 375l-156 0 0 156c0 18-14 32-31 32-17 0-31-14-31-32l0-156-157 0c-17 0-31-14-31-31 0-17 14-31 31-31l157 0 0-157c0-17 14-31 31-31 17 0 31 14 31 31l0 157 156 0c18 0 32 14 32 31 0 17-14 31-32 31z" horiz-adv-x="1000" />
<glyph glyph-name="zoom_in_alt" unicode="&#xe870;" d="m594 850c-225 0-406-182-406-406 0-97 33-185 90-255l-265-265c-17-17-17-44 0-61 17-17 44-17 61 0l265 265c70-57 158-90 255-90 224 0 406 181 406 406s-182 406-406 406z m187-437l-156 0 0-157c0-17-14-31-31-31-17 0-31 14-31 31l0 157-157 0c-17 0-31 14-31 31 0 17 14 31 31 31l157 0 0 156c0 18 14 32 31 32 17 0 31-14 31-32l0-156 156 0c18 0 32-14 32-31 0-17-14-31-32-31z" horiz-adv-x="1000" />
<glyph glyph-name="youtube" unicode="&#xe871;" d="m865 692c-228 16-498 20-730 0-72-8-121-95-126-162-12-140-12-219 0-359 5-67 53-155 126-164 235-15 504-18 730 0 71 12 121 97 127 164 11 140 11 228 0 368-6 66-46 150-127 153z m-490-519l0 359 313-180-313-179z" horiz-adv-x="1000" />
<glyph glyph-name="youtube_square" unicode="&#xe872;" d="m438 225l187 125-187 125z m375 625l-625 0c-104 0-188-84-188-187l0-625c0-104 84-188 188-188l625 0c103 0 187 84 187 188l0 625c0 103-84 187-187 187z m-6-612c-3-42-35-95-79-102-141-11-309-10-456 0-46 5-76 61-79 102-7 87-7 137 0 225 3 41 34 96 79 101 145 12 314 10 456 0 51-2 76-54 79-96 7-87 7-143 0-230z" horiz-adv-x="1000" />
<glyph glyph-name="youtube_circle" unicode="&#xe873;" d="m500 850c-276 0-500-224-500-500s224-500 500-500 500 224 500 500c0 276-224 500-500 500z m307-612c-3-42-35-95-79-102-141-11-309-10-456 0-46 5-76 61-79 102-7 87-7 137 0 225 3 41 34 96 79 101 145 12 314 10 456 0 51-2 76-54 79-96 7-87 7-143 0-230z m-369-13l187 125-187 125z" horiz-adv-x="1000" />
<glyph glyph-name="wordpress" unicode="&#xe874;" d="m500 850c-276 0-500-224-500-500s224-500 500-500 500 224 500 500-224 500-500 500z m-429-500c0 61 14 118 38 170l204-546c-143 68-242 211-242 376z m429-417c-42 0-83 6-121 17l129 364 131-352c1-2 2-4 3-6-44-15-92-23-142-23z m59 613c26 1 49 4 49 4 23 2 20 35-3 34 0 0-69-5-114-5-42 0-113 5-113 5-23 1-26-33-2-34 0 0 21-3 44-4l67-178-94-274-156 452c26 1 49 4 49 4 24 2 21 35-2 34 0 0-70-5-114-5-8 0-18 0-28 0 77 114 208 188 358 188 112 0 213-41 289-109-1 0-3 0-5 0-42 0-72-35-72-74 0-34 20-63 42-98 16-28 35-63 35-115 0-36-14-77-32-135l-43-139-155 449z m370-196c0-154-86-288-214-361l131 369c25 59 33 107 33 149 0 16-1 30-3 43 34-59 53-127 53-200z" horiz-adv-x="1000" />
<glyph glyph-name="wordpress_square" unicode="&#xe875;" d="m813 850l-625 0c-104 0-188-84-188-187l0-625c0-104 84-188 188-188l625 0c103 0 187 84 187 188l0 625c0 103-84 187-187 187z m-698-500c0 54 12 106 33 153l184-490c-128 60-217 189-217 337z m385-375c-38 0-74 5-109 15l121 315 113-304c1-1 2-3 3-5-40-14-83-21-128-21z m53 551c23 1 44 3 44 3 21 3 18 32-2 31 0 0-63-4-103-4-38 0-101 4-101 4-21 1-24-29-3-31 0 0 20-2 41-3l60-160-92-246-133 406c23 1 44 3 44 3 21 3 18 32-2 31 0 0-63-4-103-4-7 0-16 0-25 0 69 102 188 169 322 169 100 0 192-37 260-98-2 0-3 0-5 0-38 0-65-32-65-67 0-31 19-57 38-88 15-25 25-38 25-85 0-32-12-69-29-121l-38-125-133 385z m141-500l117 331c22 54 29 96 29 134 0 14 0 27-2 39 30-53 47-115 47-180 0-138-77-259-191-324z" horiz-adv-x="1000" />
<glyph glyph-name="wordpress_circle" unicode="&#xe876;" d="m500 850c-276 0-500-224-500-500s224-500 500-500 500 224 500 500-224 500-500 500z m-429-500c0 61 14 118 38 170l204-546c-143 68-242 211-242 376z m429-417c-42 0-83 6-121 17l129 364 131-352c1-2 2-4 3-6-44-15-92-23-142-23z m59 613c26 1 49 4 49 4 23 2 20 35-3 34 0 0-69-5-114-5-42 0-113 5-113 5-23 1-26-33-2-34 0 0 21-3 44-4l67-178-94-274-156 452c26 1 49 4 49 4 24 2 21 35-2 34 0 0-70-5-114-5-8 0-18 0-28 0 77 114 208 188 358 188 112 0 213-41 289-109-1 0-3 0-5 0-42 0-72-35-72-74 0-34 20-63 42-98 16-28 35-63 35-115 0-36-14-77-32-135l-43-139-155 449z m370-196c0-154-86-288-214-361l131 369c25 59 33 107 33 149 0 16-1 30-3 43 34-59 53-127 53-200z" horiz-adv-x="1000" />
<glyph glyph-name="wallet" unicode="&#xe877;" d="m938 413l0 187c0 35-28 63-63 63l-19 0-21 130c-1 8-5 15-12 20-7 5-15 7-23 5l-680-110c-17-3-29-19-26-36l2-9-33 0c-35 0-63-28-63-63l0-688c0-34 28-62 63-62l812 0c35 0 63 28 63 62l0 188c34 0 62 28 62 63l0 187c0 35-28 63-62 63z m-875 187l812 0 0-187-250 0c-34 0-62-28-62-63l0-187c0-35 28-63 62-63l250 0 0-188-812 0 0 688z m166 63l550 89 14-89-564 0z m396-500l0 187 313 0 0-187-313 0z m63 93a31-31 0 1 0 62 0 31-31 0 1 0-62 0z" horiz-adv-x="1000" />
<glyph glyph-name="wallet_alt" unicode="&#xe878;" d="m688 100l0 188c0 34 28 62 62 62l188 0 0 125c0 35-28 63-63 63l-72 0-30 181c-2 8-6 15-13 20-7 5-16 7-24 5l-617-113c-8-2-15-6-20-13-5-7-6-16-5-24l12-56-43 0c-35 0-63-28-63-63l0-563c0-34 28-62 63-62l812 0c35 0 63 28 63 62l0 126-188 0c-34 0-62 28-62 62z m-526 475l554 102 24-139-571 0-7 37z m807-287l-219 0 0-188 219 0c17 0 31 14 31 31l0 125c0 18-14 32-31 32z m-125-125c-17 0-31 14-31 31 0 17 14 31 31 31s31-14 31-31c0-17-14-31-31-31z" horiz-adv-x="1000" />
<glyph glyph-name="volume-high" unicode="&#xe879;" d="m63 92l143 0c11-11 272-231 272-231 13-8 25-11 35-11 2 0 3 0 5 0 23 2 40 22 45 42l0 916c-5 20-22 40-45 42-2 0-3 0-5 0-10 0-22-3-35-11 0 0-261-228-272-239l-143 0c-35 0-63-28-63-62l0-8 0-367 0-8c0-35 28-63 63-63z m0 71l0 367 0 8 143 0c16 0 32 6 43 17 12 11 153 135 251 220l0-851c-97 82-239 202-250 212-12 12-28 19-44 19l-143 0 0 8z m596 78c-16-8-22-27-14-42 5-11 16-17 28-17 5 0 9 1 14 3 63 32 102 95 102 165s-39 133-102 165c-16 8-34 2-42-14-8-15-2-34 14-42 42-21 68-63 68-109s-26-88-68-109z m-43-250c3-15 16-25 30-25 2 0 4 0 7 1 183 35 316 197 316 383s-133 348-317 383c-16 4-33-7-36-24-3-17 8-34 25-37 154-30 265-165 265-322s-111-292-265-322c-17-3-28-20-25-37z" horiz-adv-x="1000" />
<glyph glyph-name="volume_low" unicode="&#xe87a;" d="m638 850c-10 0-22-3-35-11 0 0-261-228-272-239l-143 0c-35 0-63-28-63-62l0-8 0-367 0-8c0-35 28-63 63-63l143 0c11-11 272-231 272-231 13-8 25-11 35-11 2 0 3 0 5 0 23 2 40 22 45 42l0 916c-5 20-22 40-45 42-2 0-3 0-5 0z m-13-926c-97 82-239 202-250 212-12 12-28 19-44 19l-143 0 0 8 0 367 0 8 143 0c16 0 32 6 43 17 12 11 153 135 251 220l0-851z m159 317c-16-8-22-27-14-42 5-11 16-17 28-17 5 0 9 1 14 3 63 32 102 95 102 165s-39 133-102 165c-16 8-34 2-42-14-8-15-2-34 14-42 42-21 68-63 68-109s-26-88-68-109z" horiz-adv-x="1000" />
<glyph glyph-name="volume_low_alt" unicode="&#xe87b;" d="m643 850c-11 1-24-2-40-11 0 0-261-228-272-239l-143 0c-35 0-63-28-63-62l0-8 0-367 0-8c0-35 28-63 63-63l143 0c11-11 272-231 272-231 16-9 29-12 40-11 23 2 40 22 45 42 0 2 0 914 0 916-5 20-22 40-45 42z m141-609c-16-8-22-27-14-42 5-11 16-17 28-17 5 0 9 1 14 3 63 32 102 95 102 165s-39 133-102 165c-16 8-34 2-42-14-8-15-2-34 14-42 42-21 68-63 68-109s-26-88-68-109z" horiz-adv-x="1000" />
<glyph glyph-name="volume_high_alt" unicode="&#xe87c;" d="m63 92l143 0c11-11 272-231 272-231 16-9 29-12 40-11 23 2 40 22 45 42 0 2 0 914 0 916-5 20-22 40-45 42-11 1-24-2-40-11 0 0-261-228-272-239l-143 0c-35 0-63-28-63-62l0-8 0-367 0-8c0-35 28-63 63-63z m596 149c-16-8-22-27-14-42 5-11 16-17 28-17 5 0 9 1 14 3 63 32 102 95 102 165s-39 133-102 165c-16 8-34 2-42-14-8-15-2-34 14-42 42-21 68-63 68-109s-26-88-68-109z m-43-250c3-15 16-25 30-25 2 0 4 0 7 1 183 35 316 197 316 383s-133 348-317 383c-16 4-33-7-36-24-3-17 8-34 25-37 154-30 265-165 265-322s-111-292-265-322c-17-3-28-20-25-37z" horiz-adv-x="1000" />
<glyph glyph-name="vol_mute" unicode="&#xe87d;" d="m63 92l143 0c11-11 272-231 272-231 16-9 29-12 40-11 23 2 40 22 45 42 0 2 0 914 0 916-5 20-22 40-45 42-11 1-24-2-40-11 0 0-261-228-272-239l-143 0c-35 0-63-28-63-62l0-8 0-367 0-8c0-35 28-63 63-63z m926 420c-15 15-39 15-54 0l-108-108-108 108c-15 15-39 15-54 0-15-15-15-39 0-54l108-108-108-108c-15-15-15-39 0-54 15-15 39-15 54 0l108 108 108-108c15-15 39-15 54 0 15 15 15 39 0 54l-108 108 108 108c15 15 15 39 0 54z" horiz-adv-x="1000" />
<glyph glyph-name="vol_mute_alt" unicode="&#xe87e;" d="m63 92l143 0c11-11 272-231 272-231 13-8 25-11 35-11 2 0 3 0 5 0 23 2 40 22 45 42l0 916c-5 20-22 40-45 42-2 0-3 0-5 0-10 0-22-3-35-11 0 0-261-228-272-239l-143 0c-35 0-63-28-63-62l0-8 0-367 0-8c0-35 28-63 63-63z m0 71l0 367 0 8 143 0c16 0 32 6 43 17 12 11 153 135 251 220l0-851c-97 82-239 202-250 212-12 12-28 19-44 19l-143 0 0 8z m926 349c-15 15-39 15-54 0l-108-108-108 108c-15 15-39 15-54 0-15-15-15-39 0-54l108-108-108-108c-15-15-15-39 0-54 15-15 39-15 54 0l108 108 108-108c15-15 39-15 54 0 15 15 15 39 0 54l-108 108 108 108c15 15 15 39 0 54z" horiz-adv-x="1000" />
<glyph glyph-name="vimeo" unicode="&#xe87f;" d="m574 551c114 69 175-27 116-137-58-109-111-180-139-180-28 0-50 73-81 201-33 132-33 369-171 342-129-25-299-228-299-228l41-53c0 0 83 66 111 33 28-33 135-432 170-505 31-65 117-150 211-89 94 60 406 327 462 642 56 315-376 249-421-26z" horiz-adv-x="1031" />
<glyph glyph-name="vimeo_square" unicode="&#xe880;" d="m813 850l-625 0c-104 0-188-84-188-187l0-625c0-104 84-188 188-188l625 0c103 0 187 84 187 188l0 625c0 103-84 187-187 187z m-16-364c-34-189-221-349-277-385-57-37-108 14-127 53-21 44-85 283-102 303-16 20-67-20-67-20l-24 32c0 0 102 122 180 137 82 17 82-126 102-205 19-77 32-120 48-120 17 0 49 42 84 108 35 65-1 123-70 82 28 164 287 204 253 15z" horiz-adv-x="1000" />
<glyph glyph-name="trash_alt" unicode="&#xe881;" d="m813 788l-125 0c0 34-28 62-63 62l-187 0c-35 0-63-28-63-62l-125 0c-34 0-62-28-62-63l687 0c0 35-28 63-62 63z m-625-876c0-34 28-62 62-62l563 0c34 0 62 28 62 62l0 751-687 0 0-751z m500 594c0 18 14 32 31 32s31-14 31-32l0-500c0-17-14-31-31-31s-31 14-31 31l0 500z m-188 0c0 18 14 32 31 32s32-14 32-32l0-500c0-17-14-31-32-31s-31 14-31 31l0 500z m-187 0c0 18 14 32 31 32s31-14 31-32l0-500c0-17-14-31-31-31s-31 14-31 31l0 500z" horiz-adv-x="1000" />
<glyph glyph-name="trash" unicode="&#xe882;" d="m813 788l-125 0c0 34-28 62-63 62l-187 0c-35 0-63-28-63-62l-125 0c-34 0-62-28-62-63l687 0c0 35-28 63-62 63z m-625-876c0-34 28-62 62-62l563 0c34 0 62 28 62 62l0 751-687 0 0-751z m62 688l563 0 0-688-563 0 0 688z m94-62c-17 0-31-14-31-32l0-500c0-17 14-31 31-31s31 14 31 31l0 500c0 18-14 32-31 32z m187 0c-17 0-31-14-31-32l0-500c0-17 14-31 31-31s32 14 32 31l0 500c0 18-14 32-32 32z m188 0c-17 0-31-14-31-32l0-500c0-17 14-31 31-31s31 14 31 31l0 500c0 18-14 32-31 32z" horiz-adv-x="1000" />
<glyph glyph-name="triangle_down_alt" unicode="&#xe883;" d="m521 235c1 1 1 1 1 1l218 242c12 13 12 35 0 49 0 0 0 0 0 0-6 6-14 11-22 11l-437 0c-9 0-17-5-22-11l0 0c-13-14-13-36 0-49l218-243c12-13 32-13 44 0z" horiz-adv-x="1000" />
<glyph glyph-name="triangle_down" unicode="&#xe884;" d="m712 419l-181-181-180 181c-13 12-32 12-45 0-12-12-12-32 0-44l203-203c6-6 14-9 22-9 8 0 16 3 22 9l203 203c12 12 12 32 0 44-12 12-32 12-44 0z" horiz-adv-x="1000" />
<glyph glyph-name="triangle_left_alt" unicode="&#xe885;" d="m565 592l-242-219c-14-12-14-32 0-44 0-1 1-1 1-1l241-218c14-12 36-12 49 0 0 0 0 0 0 0 7 6 11 14 11 22l0 437c0 9-4 17-11 22l0 0c-13 13-35 13-49 1z" horiz-adv-x="1000" />
<glyph glyph-name="triangle_left" unicode="&#xe886;" d="m384 297l203-203c12-12 32-12 44 0 12 12 12 32 0 44l-180 181 180 180c12 13 12 32 0 45-12 12-32 12-44 0l-203-203c-6-6-9-14-9-22 0-8 3-16 9-22z" horiz-adv-x="1000" />
<glyph glyph-name="triangle_right_alt" unicode="&#xe887;" d="m434 109l239 219c14 12 14 32 0 44 0 0-1 0-1 1l-238 219c-13 12-35 12-48 0 0-1 0-1-1-1-6-6-10-13-10-22l0-438c0-9 4-17 11-22l0 0c13-13 35-13 48 0z" horiz-adv-x="1000" />
<glyph glyph-name="triangle_right" unicode="&#xe888;" d="m431 94c12-12 32-12 44 0l203 203c6 6 9 14 9 22 0 8-3 16-9 22l-203 203c-12 12-32 12-44 0-12-13-12-32 0-45l181-180-181-181c-12-12-12-32 0-44z" horiz-adv-x="1000" />
<glyph glyph-name="triangle_up_alt" unicode="&#xe889;" d="m281 225l437 0c9 0 17 4 22 11l0 0c12 13 12 35 0 49l-218 242c-13 14-32 14-44 0-1 0-1-1-1-1l-218-241c-13-14-13-36 0-49 0 0 0 0 0 0 6-7 13-11 22-11z" horiz-adv-x="1000" />
<glyph glyph-name="triangle_up" unicode="&#xe88a;" d="m351 219l180 180 181-180c12-12 32-12 44 0 12 12 12 32 0 44l-203 203c-6 6-14 9-22 9-8 0-16-3-22-9l-203-203c-12-12-12-32 0-44 13-12 32-12 45 0z" horiz-adv-x="1000" />
<glyph glyph-name="tumbleupon" unicode="&#xe88b;" d="m688 360l-67-24-58 24 0-121c0-117 84-201 187-201s188 84 188 187l0 125-125 0 0-125c0-34-29-62-63-62-34 0-62 28-62 76l0 121z m-438-322c103 0 188 84 188 187l0 250c0 34 28 63 62 63 34 0 63-28 63-49l0-61 58-23 67 23 0 61c0 89-85 174-188 174s-187-85-187-188l0-250c0-34-29-62-63-62-34 0-62 28-62 62l0 125-125 0 0-125c0-103 84-187 187-187z" horiz-adv-x="1000" />
<glyph glyph-name="tumblr_circle" unicode="&#xe88c;" d="m500 850c-276 0-500-224-500-500s224-500 500-500 500 224 500 500c0 276-224 500-500 500z m187-462l-149 0-1-138c0-34 0-55 4-64 3-10 13-20 23-26 13-8 28-12 45-12 30 0 48 4 78 24l0-91c-25-12-48-19-68-24-21-5-44-7-68-7-27 0-43 3-64 10-21 7-39 17-54 30-15 13-26 27-31 41-6 14-9 35-9 63l0 210-80 0 0 85c23 8 50 19 66 33 17 14 31 32 41 52 10 20 17 45 21 76l97 0 0-150 149 0 0-112z" horiz-adv-x="1000" />
<glyph glyph-name="tumblr_square" unicode="&#xe88d;" d="m813 850l-625 0c-104 0-188-84-188-187l0-625c0-104 84-188 188-188l625 0c103 0 187 84 187 188l0 625c0 103-84 187-187 187z m-126-462l-149 0-1-138c0-34 0-55 4-64 3-10 13-20 23-26 13-8 28-12 45-12 30 0 48 4 78 24l0-91c-25-12-48-19-68-24-21-5-44-7-68-7-27 0-43 3-64 10-21 7-39 17-54 30-15 13-26 27-31 41-6 14-9 35-9 63l0 210-80 0 0 85c23 8 50 19 66 33 17 14 31 32 41 52 10 20 17 45 21 76l97 0 0-150 149 0 0-112z" horiz-adv-x="1000" />
<glyph glyph-name="tumblr" unicode="&#xe88e;" d="m322 90c0-46 5-81 14-105 10-24 27-47 52-68 25-22 55-38 90-50 35-11 62-17 107-17 41 0 78 4 113 12 34 8 72 20 114 40l0 150c-50-32-80-39-130-39-29 0-54 6-76 20-17 10-32 27-38 43-6 16-6 50-6 108l1 229 249 0 0 187-249 0 0 250-162 0c-6-52-18-94-35-127-17-34-39-62-67-86-28-24-72-42-111-55l0-169 134 0 0-323z" horiz-adv-x="1000" />
<glyph glyph-name="twitter_circle" unicode="&#xe88f;" d="m500 850c-276 0-500-224-500-500s224-500 500-500 500 224 500 500c0 276-224 500-500 500z m249-388c0-5 0-10 0-16 0-162-124-350-350-350-70 0-134 20-189 55 10-1 20-1 30-1 57 0 110 19 152 52-53 1-99 37-115 86 8-2 16-2 24-2 11 0 22 1 32 4-56 11-99 61-99 121 0 0 0 1 0 1 17-9 36-15 56-15-33 22-55 60-55 102 0 23 6 44 17 62 61-74 151-123 254-129-2 9-3 19-3 29 0 67 55 123 123 123 35 0 67-15 90-39 28 5 54 16 78 30-9-29-29-53-54-69 24 3 48 10 70 20-16-25-37-46-61-64z" horiz-adv-x="1000" />
<glyph glyph-name="twitter_square" unicode="&#xe890;" d="m813 850l-625 0c-104 0-188-84-188-187l0-625c0-104 84-188 188-188l625 0c103 0 187 84 187 188l0 625c0 103-84 187-187 187z m-64-388c0-5 0-10 0-16 0-162-124-350-350-350-70 0-134 20-189 55 10-1 20-1 30-1 57 0 110 19 152 52-53 1-99 37-115 86 8-2 16-2 24-2 11 0 22 1 32 4-56 11-99 61-99 121 0 0 0 1 0 1 17-9 36-15 56-15-33 22-55 60-55 102 0 23 6 44 17 62 61-74 151-123 254-129-2 9-3 19-3 29 0 67 55 123 123 123 35 0 67-15 90-39 28 5 54 16 78 30-9-29-29-53-54-69 24 3 48 10 70 20-16-25-37-46-61-64z" horiz-adv-x="1000" />
<glyph glyph-name="twitter" unicode="&#xe891;" d="m972 741c-39-23-83-40-130-50-37 40-91 65-150 65-113 0-205-92-205-205 0-16 2-32 6-47-171 9-322 91-423 215-18-30-28-66-28-103 0-72 36-134 91-171-33 1-65 10-93 26 0-1 0-2 0-3 0-99 71-182 165-201-17-5-36-7-54-7-14 0-26 1-39 3 26-81 102-140 192-142-70-55-159-88-255-88-17 0-33 1-49 3 91-58 199-92 314-92 378 0 584 312 584 584 0 8 0 17 0 26 40 29 75 65 102 106-37-16-76-27-118-32 43 25 75 65 90 113z" horiz-adv-x="1000" />
<glyph glyph-name="ul" unicode="&#xe892;" d="m344 350l500 0c17 0 31 14 31 31 0 18-14 32-31 32l-500 0c-17 0-31-14-31-32 0-17 14-31 31-31z m0 250l500 0c17 0 31 14 31 31 0 18-14 32-31 32l-500 0c-17 0-31-14-31-32 0-17 14-31 31-31z m0-500l500 0c17 0 31 14 31 31 0 18-14 32-31 32l-500 0c-17 0-31-14-31-32 0-17 14-31 31-31z m-219 531a31-31 1080 1 0 63 0 31-31 1080 1 0-63 0z m0-250a31-31 1080 1 0 63 0 31-31 1080 1 0-63 0z m0-250a31-31 1080 1 0 63 0 31-31 1080 1 0-63 0z" horiz-adv-x="1000" />
<glyph glyph-name="upload" unicode="&#xe893;" d="m188 475l187 0 0-375 250 0-1 375 189 0-313 313z m562-500l-500 0 0 125-125 0 0-125 0-125 750 0 0 125 0 125-125 0z" horiz-adv-x="1000" />
<glyph glyph-name="vimeo_circle" unicode="&#xe894;" d="m500 850c-276 0-500-224-500-500s224-500 500-500 500 224 500 500c0 276-224 500-500 500z m297-364c-34-189-221-349-277-385-57-37-108 14-127 53-21 44-85 283-102 303-16 20-67-20-67-20l-24 32c0 0 102 122 180 137 82 17 82-126 102-205 19-77 32-120 48-120 17 0 49 42 84 108 35 65-1 123-70 82 28 164 287 204 253 15z" horiz-adv-x="1000" />
<glyph glyph-name="tools" unicode="&#xe895;" d="m27 9c-37-37-37-96 0-133 18-18 42-27 66-27 24 0 48 9 66 27l308 308-133 133-307-308z m769 571l134 69 70 136-65 65-136-70-69-134-164-163 67-67z m29-356c-4 0-8 1-12 1-23 0-45-5-65-12l-385 385c7 20 12 42 12 65 0 4-1 8-1 12-7 98-87 175-186 175-29 0-56-7-81-19l125-124c6-7 11-15 14-23 8-22 4-48-14-66-12-12-28-18-44-18-8 0-15 2-22 4-8 3-16 8-23 14l-124 125c-12-25-19-52-19-80 0-100 77-180 175-187 4 0 8-1 13-1 22 0 44 5 64 12l385-385c-7-20-12-42-12-64 0-5 1-9 1-13 7-98 87-175 187-175 28 0 55 7 80 19l-125 124c-6 7-11 15-14 23-8 22-3 48 14 66 13 12 29 18 45 18 7 0 14-2 21-4 8-3 16-8 23-14l124-125c12 25 19 52 19 81 0 99-77 179-175 186z" horiz-adv-x="1000" />
<glyph glyph-name="toolbox" unicode="&#xe896;" d="m938 538l-250 0c0-35-28-63-63-63l313 0 0-125-313 0c35 0 63-28 63-62l250 0 0-376-875 0 0 376 250 0c0 34 28 62 62 62l-312 0 0 125 312 0c-34 0-62 28-62 63l-250 0c-35 0-63-28-63-63l0-125 0-62 0-376c0-34 28-62 63-62l875 0c34 0 62 28 62 62l0 376 0 62 0 125c0 35-28 63-62 63z m-563-63l250 0c35 0 63 28 63 63l0 62c0 35-28 63-63 63l-250 0c-34 0-62-28-62-63l0-62c0-35 28-63 62-63z m0 125l250 0 0-62-250 0 0 62z m-62-312l0-63c0-34 28-62 62-62l250 0c35 0 63 28 63 62l0 63c0 34-28 62-63 62l-250 0c-34 0-62-28-62-62z m312-63l-250 0 0 63 250 0 0-63z" horiz-adv-x="1000" />
<glyph glyph-name="toolbox_alt" unicode="&#xe897;" d="m938 538l-250 0 0 62c0 35-28 63-63 63l-250 0c-34 0-62-28-62-63l0-62-250 0c-35 0-63-28-63-63l0-125 375 0 250 0 375 0 0 125c0 35-28 63-62 63z m-563 62l250 0 0-62-250 0 0 62z m0-312l250 0 0-63-250 0z m313-63c0-34-28-62-63-62l-250 0c-34 0-62 28-62 62l0 63-313 0 0-376c0-34 28-62 63-62l875 0c34 0 62 28 62 62l0 376-312 0 0-63z" horiz-adv-x="1000" />
<glyph glyph-name="tool" unicode="&#xe898;" d="m813 100c7 0 14-2 21-4 8-3 16-8 23-14l124-125c12 25 19 52 19 81 0 99-77 179-175 186-4 0-8 1-12 1-23 0-45-5-65-12l-385 385c7 20 12 42 12 65 0 4-1 8-1 12-7 98-87 175-186 175-29 0-56-7-81-19l125-124c6-7 11-15 14-23 8-22 4-48-14-66-12-12-28-18-44-18-8 0-15 2-22 4-8 3-16 8-23 14l-124 125c-12-25-19-52-19-80 0-100 77-180 175-187 4 0 8-1 13-1 22 0 44 5 64 12l385-385c-7-20-12-42-12-64 0-5 1-9 1-13 7-98 87-175 187-175 28 0 55 7 80 19l-125 124c-6 7-11 15-14 23-8 22-3 48 14 66 13 12 29 18 45 18z" horiz-adv-x="1000" />
<glyph glyph-name="target" unicode="&#xe899;" d="m500 850c-276 0-500-224-500-500s224-500 500-500 500 224 500 500-224 500-500 500z m0-938c-241 0-437 197-437 438s196 438 437 438 438-197 438-438-197-438-438-438z m0 751c-173 0-312-140-312-313s139-312 312-312 313 139 313 312-140 313-313 313z m0-500c-103 0-187 84-187 187 0 103 84 188 187 188s188-85 188-188c0-103-85-187-188-187z m-62 187a63-63 0 1 0 125 0 63-63 0 1 0-125 0z" horiz-adv-x="1000" />
<glyph glyph-name="tags" unicode="&#xe89a;" d="m909 850c-1 0-1 0-1 0-1 0-1 0-1 0 0 0 0 0 0 0 0 0-1 0-1 0 0 0 0 0 0 0l-331 0c-9 0-31-15-34-18l-398-398c-24-24-24-64 0-88l50-50-50-49c-24-25-24-64 0-89l291-290c12-12 28-18 44-18 16 0 32 6 44 18l398 398c3 3 18 22 18 34l0 519c0 17-12 31-29 31z m-33-540c0 0-1 0-1 0 0 0 0 0 0 0l-397-398-291 290 50 50 197-197c12-12 28-18 44-18 16 0 32 6 44 18l354 354 0-99z m0 290l0-102c0 0-1-1-1-1l0 0c0 0 0 0 0 0l-397-397-291 290 396 395c1 1 2 2 4 3l289 0 0-188z m-125 94a31-31 1080 1 0 62 0 31-31 1080 1 0-62 0z" horiz-adv-x="1000" />
<glyph glyph-name="tags_alt" unicode="&#xe89b;" d="m908 850c0 0-1 0-2 0 0 0-1 0-1 0l-330 0c-10 0-32-15-35-18l-397-398c-25-24-25-64 0-88l49-50-49-49c-25-25-25-64 0-89l290-290c12-12 28-18 44-18s32 6 44 18l398 398c3 3 19 22 19 34l0 187 0 144 0 188c0 17-13 31-30 31z m-64-62c17 0 31-14 31-31s-14-32-31-32-31 14-31 32 14 31 31 31z m31-478l-398-398-290 290 49 50 197-197c12-12 28-18 44-18s32 6 44 18l354 354 0-99c0 0 0 0 0 0 0 0 0 0 0 0z" horiz-adv-x="1000" />
<glyph glyph-name="tag" unicode="&#xe89c;" d="m908 787c0 0-1 0-2 0 0 0-1 0-1 0l-393 0c-10 0-31-15-34-18l-460-460c-24-24-24-63 0-88l353-353c12-12 28-18 44-18 16 0 32 6 44 18l460 460c3 3 19 22 19 34l0 394c0 18-13 31-30 31z m-64-124c-17 0-31 14-31 31 0 17 14 31 31 31s31-14 31-31c0-17-14-31-31-31z" horiz-adv-x="1000" />
<glyph glyph-name="tag_alt" unicode="&#xe89d;" d="m908 787c0 0-1 0-2 0 0 0-1 0-1 0l-393 0c-10 0-31-15-34-18l-460-460c-24-24-24-63 0-88l353-353c12-12 28-18 44-18 16 0 32 6 44 18l460 460c3 3 19 22 19 34l0 394c0 18-13 31-30 31z m-33-413c-1-2-2-3-3-4l-457-458-353 353 458 457c1 1 2 2 4 3l351 0 0-351z m-125 257a31-31 1080 1 0 63 0 31-31 1080 1 0-63 0z" horiz-adv-x="1000" />
<glyph glyph-name="tablet" unicode="&#xe89e;" d="m813-150c34 0 62 28 62 62l0 876c0 34-28 62-62 62l-625 0c-35 0-63-28-63-62l0-876c0-34 28-62 63-62l625 0z m-313 27c-19 0-35 16-35 35s16 36 35 36 35-16 35-36-16-35-35-35z m-250 848l500 0 0-750-500 0 0 750z" horiz-adv-x="1000" />
<glyph glyph-name="table" unicode="&#xe89f;" d="m999 728c-3 32-29 60-61 60l-875 0c-33 0-59-28-62-60l-1 0 0-5 0-123 0-443 0-57 0-188c0-34 28-62 63-62l875 0c34 0 62 28 62 62l0 688 0 123 0 5-1 0z m-624-315l0 187 250 0 0-187-250 0z m250-63l0-193-250 0 0 193 250 0z m-312 250l0-187-250 0 0 187 250 0z m-250-250l250 0 0-193-250 0 0 193z m0-438l0 188 250 0 0-188-250 0z m312 0l0 188 250 0 0-188-250 0z m563 0l-250 0 0 188 250 0 0-188z m0 245l-250 0 0 193 250 0 0-193z m0 256l-250 0 0 187 250 0 0-187z" horiz-adv-x="1000" />
<glyph glyph-name="stumbleupon_square" unicode="&#xe8a0;" d="m813 850l-625 0c-104 0-188-84-188-187l0-625c0-104 84-188 188-188l625 0c103 0 187 84 187 188l0 625c0 103-84 187-187 187z m-313-366c-25 0-45-20-45-45l0-178c0-74-60-134-134-134-74 0-134 60-134 134l0 89 90 0 0-89c0-25 20-45 44-45 25 0 45 20 45 45l0 178c0 74 60 134 134 134s134-60 134-124l0-43-57-17-32 17 0 43c0 15-20 35-45 35z m313-223c0-74-60-134-134-134s-134 60-134 144l0 86 32-17 57 17 0-87c0-34 20-54 45-54s44 20 44 45l0 89 90 0 0-89z" horiz-adv-x="1000" />
<glyph glyph-name="stumbleupon_circle" unicode="&#xe8a1;" d="m500 850c-276 0-500-224-500-500s224-500 500-500 500 224 500 500c0 276-224 500-500 500z m0-366c-25 0-45-20-45-45l0-178c0-74-60-134-134-134-74 0-134 60-134 134l0 89 90 0 0-89c0-25 20-45 44-45 25 0 45 20 45 45l0 178c0 74 60 134 134 134s134-60 134-124l0-43-57-17-32 17 0 43c0 15-20 35-45 35z m313-223c0-74-60-134-134-134s-134 60-134 144l0 86 32-17 57 17 0-87c0-34 20-54 45-54s44 20 44 45l0 89 90 0 0-89z" horiz-adv-x="1000" />
<glyph glyph-name="stop" unicode="&#xe8a2;" d="m625 163c35 0 63 28 63 62l0 250c0 35-28 63-63 63l-250 0c-34 0-62-28-62-63l0-250c0-34 28-62 62-62l250 0z" horiz-adv-x="1000" />
<glyph glyph-name="star" unicode="&#xe8a3;" d="m996 445c-7 23-27 40-50 43l-269 39-121 244c-10 22-32 35-56 35s-45-13-56-35l-120-244-270-39c-23-3-43-20-50-43-8-22-2-47 16-64l194-190-46-268c-4-23 6-47 25-61 11-8 24-12 37-12 10 0 20 2 29 7l241 127 241-127c9-5 19-7 29-7 13 0 26 4 37 12 19 14 29 38 25 61l-46 268 195 190c17 17 23 42 15 64z m-278-232l52-301-270 142-270-142 52 301-219 213 302 44 135 274 135-274 302-44-219-213z" horiz-adv-x="1000" />
<glyph glyph-name="star_half" unicode="&#xe8a4;" d="m996 445c-7 23-27 40-50 43l-269 39-121 244c-10 22-32 35-56 35s-45-13-56-35l-120-244-270-39c-23-3-43-20-50-43-8-22-2-47 16-64l194-190-46-268c-4-23 6-47 25-61 11-8 24-12 37-12 10 0 20 2 29 7l241 127 241-127c9-5 19-7 29-7 13 0 26 4 37 12 19 14 29 38 25 61l-46 268 195 190c17 17 23 42 15 64z m-278-232l52-301-270 142 0 690 135-274 302-44-219-213z" horiz-adv-x="1000" />
<glyph glyph-name="star_half_alt" unicode="&#xe8a5;" d="m500 11l0 782-153-311-342-49 247-242-58-341z" horiz-adv-x="1000" />
<glyph glyph-name="star_alt" unicode="&#xe8a6;" d="m649 482l-153 311-154-311-342-49 248-242-59-341 307 161 306-161-59 341 248 242z" horiz-adv-x="1000" />
<glyph glyph-name="spotify" unicode="&#xe8a7;" d="m500 850c-276 0-500-224-500-500 0-276 224-500 500-500s500 224 500 500c0 276-224 500-500 500z m231-793c-6-11-18-18-30-18-6 0-11 1-17 4-80 44-171 68-263 68-55 0-109-8-161-25-18-5-37 5-43 23-6 18 5 57 23 62 58 18 120 28 182 28 103 0 205-27 296-76 16-9 22-49 13-66z m64 188c-8-13-22-36-36-36-6 0-13 2-19 5-99 51-206 77-318 77-62 0-124-8-183-24-22-6-44 7-50 28-5 21 7 58 29 64 66 18 135 27 204 27 123 0 246-30 355-87 20-10 28-34 18-54z m67 181c-8-16-24-30-41-30-7 0-14 2-20 5-119 59-246 89-379 89-70 0-139-9-206-25-25-6-49 9-55 33-7 25 8 54 33 61 74 18 151 27 228 27 147 0 288-33 420-98 22-12 31-39 20-62z" horiz-adv-x="1000" />
<glyph glyph-name="spotify_square" unicode="&#xe8a8;" d="m708 312c-82 42-174 65-267 65-52 0-103-7-153-20-16-5-25-32-21-48 5-16 21-26 37-21 45 12 91 18 137 18 85 0 165-20 239-58 5-2 10-4 14-4 11 0 22 17 27 27 8 15 2 33-13 41z m105 538l-625 0c-104 0-188-84-188-187l0-625c0-104 84-188 188-188l625 0c103 0 187 84 187 188l0 625c0 103-84 187-187 187z m-313-875c-207 0-375 168-375 375 0 207 168 375 375 375s375-168 375-375c0-207-168-375-375-375z m-59 552c-57 0-115-7-171-21-18-4-29-26-25-45s24-29 42-25c50 13 102 19 154 19 100 0 196-23 285-67 5-2 10-3 15-3 13 0 25 10 31 22 8 17 1 38-16 46-98 49-204 74-315 74z m0-290c-46 0-92-7-136-21-14-4-21-33-17-47 4-13 18-21 32-17 39 13 80 19 121 19 69 0 137-18 197-51 4-2 8-3 13-3 9 0 18 5 22 13 7 13 3 43-10 50-67 37-144 57-222 57z" horiz-adv-x="1000" />
<glyph glyph-name="question" unicode="&#xe8a9;" d="m430 37a64-64 1080 1 0 129 0 64-64 1080 1 0-129 0z m178 243c91 50 137 122 137 215 0 159-126 230-250 230-121 0-250-88-250-251 0-35 28-63 62-63s63 28 63 63c0 87 65 126 125 126 47 0 125-14 125-105 0-33-9-71-72-106-43-23-116-85-116-164 0-34 28-62 63-62s62 28 62 62c0 12 25 40 51 55z" horiz-adv-x="1000" />
<glyph glyph-name="percent" unicode="&#xe8aa;" d="m500 850c-276 0-500-224-500-500s224-500 500-500 500 224 500 500-224 500-500 500z m0-938c-241 0-437 197-437 438s196 438 437 438 438-197 438-438-197-438-438-438z m-59 596c0 53-42 96-95 96s-96-43-96-96 43-95 96-95 95 42 95 95z m-128 0c0 19 14 33 33 33s33-14 33-33-15-33-33-33-33 15-33 33z m341-217c-53 0-95-42-95-95s42-96 95-96 96 43 96 96-43 95-96 95z m0-128c-18 0-33 14-33 33s15 33 33 33 34-15 34-33-15-33-34-33z m56 397c-13 12-32 12-45 0l-375-375c-12-13-12-32 0-45 7-6 15-9 23-9s16 3 22 9l375 375c12 13 12 32 0 45z" horiz-adv-x="1000" />
<glyph glyph-name="minus_box" unicode="&#xe8ab;" d="m250 538l0-438c0-34 28-62 63-62l437 0c35 0 63 28 63 62l0 438c0 34-28 62-63 62l-437 0c-35 0-63-28-63-62z m500-438l-437 0 0 438 437 0 0-438z m-344 188l250 0c18 0 32 14 32 31 0 17-14 31-32 31l-250 0c-17 0-31-14-31-31 0-17 14-31 31-31z" horiz-adv-x="1000" />
<glyph glyph-name="minus" unicode="&#xe8ac;" d="m281 288l500 0c18 0 32 14 32 31 0 17-14 31-32 31l-500 0c-17 0-31-14-31-31 0-17 14-31 31-31z" horiz-adv-x="1000" />
<glyph glyph-name="phone" unicode="&#xe8ad;" d="m413 598c-12 137-155 205-161 207-6 3-12 4-18 3-166-28-191-124-192-128-1-5-1-11 1-17 197-612 607-725 742-762 10-3 19-6 25-8 3-1 7-1 10-1 4 0 9 1 13 3 4 1 101 47 125 197 1 6 0 13-3 19-2 4-53 101-194 135-10 3-20 0-28-6-44-38-106-79-132-83-178 87-278 254-282 286-2 18 39 80 86 131 6 7 9 15 8 24z" horiz-adv-x="1000" />
<glyph glyph-name="quotations" unicode="&#xe8ae;" d="m250 440c0-53 41-96 92-96 16 0 31 5 45 13-5-51-31-126-125-202-13-10-16-30-5-44 6-8 15-12 24-12 6 0 13 2 18 7 116 93 145 189 149 253 6 82-18 125-41 148-2 2-4 4-7 6-5 5-10 8-14 11 0 0 0 0-1 0 0 0 0 0-1 0-6 4-10 5-10 5l0 0c-10 4-20 7-32 7-51 0-92-43-92-96z m303 0c0-53 41-96 92-96 16 0 31 5 45 13-5-51-31-126-125-202-13-10-16-30-5-44 6-8 15-12 24-12 6 0 13 2 18 7 116 93 145 189 149 253 6 82-19 125-41 148-2 2-4 4-7 6-5 5-10 8-14 11 0 0 0 0-1 0 0 0 0 0-1 0-6 4-10 5-10 5l0 0c-10 4-21 7-32 7-51 0-92-43-92-96z" horiz-adv-x="1000" />
<glyph glyph-name="refresh" unicode="&#xe8af;" d="m937 850c-35 0-64-28-64-63l0-148c-71 87-153 211-380 211-272 0-493-221-493-493 0-272 221-494 493-494 214 0 402 137 469 340 11 34-7 70-41 81-34 11-70-7-81-41-50-150-189-251-347-251-201 0-364 164-364 365s163 363 364 363c143 0 222-88 286-181l-159 0c-35 0-63-28-63-63 0-35 28-64 63-64l317 0c35 0 63 29 63 64l0 311c0 35-28 63-63 63z" horiz-adv-x="1000" />
<glyph glyph-name="picassa_circle" unicode="&#xe8b0;" d="m500 850c-276 0-500-224-500-500s224-500 500-500 500 224 500 500c0 276-224 500-500 500z m0-125c50 0 97-10 141-27l0-262-267 267c39 14 82 22 126 22z m-364-465c-7 29-11 59-11 90 0 142 79 265 194 329l118-118-301-301z m177-235c-70 40-125 102-157 176l157 157 0-333z m187-50c-50 0-97 10-141 27l0 161 466 0c-65-113-186-188-325-188z m348 234l-160 0 0 466c112-65 187-186 187-325 0-50-10-97-27-141z" horiz-adv-x="1000" />
<glyph glyph-name="mobile" unicode="&#xe8b1;" d="m750-150c35 0 63 28 63 62l0 876c0 34-28 62-63 62l-437 0c-35 0-63-28-63-62l0-876c0-34 28-62 63-62l437 0z m-250 98c0 19 16 35 35 35s35-16 35-35-15-36-35-36-35 16-35 36z m156 840c18 0 32-14 32-32 0-17-14-31-32-31l-62 0c-17 0-31 14-31 31 0 18 14 32 31 32l62 0z m-156-32c0-17-14-31-31-31s-31 14-31 31c0 18 14 32 31 32s31-14 31-32z m-187-93l437 0 0-625-437 0 0 625z" horiz-adv-x="1000" />
<glyph glyph-name="move" unicode="&#xe8b2;" d="m998 331c-2 4-4 7-7 10l-125 125c-12 12-32 12-44 0-13-12-13-32 0-44l71-72-330 0 0 331 71-72c12-12 32-12 44 0 13 12 13 32 0 44l-125 125c0 0 0 1 0 1-3 2-6 5-10 6-4 2-8 3-12 3 0 0 0 0 0 0-4 0-8-1-12-3-3-1-7-4-9-6-1 0-1-1-1-1l-125-125c-12-12-12-32 0-44 12-12 32-12 44 0l72 72 0-331-331 0 72 72c12 12 12 32 0 44-12 12-32 12-44 0l-125-125c0 0 0 0-1 0-2-3-5-7-6-10-2-4-2-8-2-12 0 0 0 0 0 0 0-4 0-8 2-12 1-4 4-7 6-10 1 0 1 0 1 0l125-125c12-13 32-13 44 0 12 12 12 32 0 44l-72 72 331 0 0-331-72 71c-12 13-32 13-44 0-12-12-12-32 0-44l125-125c3-3 7-5 10-7 4-1 8-2 12-2 0 0 0 0 0 0 4 0 8 1 12 2 4 2 7 4 10 7l125 125c13 12 13 32 0 44-12 13-32 13-44 0l-71-71 0 331 330 0-71-72c-12-12-12-32 0-44 12-12 32-12 44 0l125 125c3 3 5 6 7 10 1 4 2 8 2 12 0 0 0 0 0 0 0 4-1 8-2 12z" horiz-adv-x="1000" />
<glyph glyph-name="picassa_square" unicode="&#xe8b3;" d="m813 850l-625 0c-104 0-188-84-188-187l0-625c0-104 84-188 188-188l625 0c103 0 187 84 187 188l0 625c0 103-84 187-187 187z m-313-125c50 0 97-10 141-27l0-262-267 267c39 14 82 22 126 22z m-375-375c0 142 79 265 194 329l118-118-301-301c-7 29-11 59-11 90z m188-325c-70 40-125 102-157 176l157 157 0-333z m187-50c-50 0-97 10-141 27l0 161 466 0c-65-113-186-188-325-188z m348 234l-160 0 0 466c112-65 187-186 187-325 0-50-10-97-27-141z" horiz-adv-x="1000" />
<glyph glyph-name="ribbon_alt" unicode="&#xe8b4;" d="m125 663l0-751c0-25 15-48 39-57 7-3 15-5 24-5 16 0 32 6 44 18l268 269 268-269c12-12 28-18 45-18 8 0 16 2 23 5 24 9 39 32 39 57l0 751-750 0z m750 62l0 63c0 34-28 62-62 62l-625 0c-35 0-63-28-63-62l0-63 750 0z" horiz-adv-x="1000" />
<glyph glyph-name="ribbon" unicode="&#xe8b5;" d="m164-145c7-3 15-5 24-5 16 0 32 6 44 18l268 269 268-269c12-12 28-18 45-18 8 0 16 2 23 5 24 9 39 32 39 57l0 876c0 34-28 62-62 62l-625 0c-35 0-63-28-63-62l0-876c0-25 15-48 39-57z m336 370l-312-313 0 688 625 0 0-688-313 313z m313 563l0-125-625 0 0 125 625 0z" horiz-adv-x="1000" />
<glyph glyph-name="picassa" unicode="&#xe8b6;" d="m250-83l0 443-209-209c43-98 117-181 209-234z m63-31c57-23 121-36 187-36 185 0 347 101 433 250l-620 0 0-214z m103 745l-157 157c-154-85-259-249-259-438 0-41 5-82 15-120l401 401z m272 183c-58 23-122 36-188 36-59 0-116-10-168-29l356-356 0 349z m62-31l0-620 214 0c23 57 36 121 36 187 0 185-101 347-250 433z" horiz-adv-x="1000" />
<glyph glyph-name="mug_alt" unicode="&#xe8b7;" d="m809 537c2 27 3 48 3 60 1 17-5 34-17 46s-28 20-45 20l-687 0c-17 0-34-7-46-20s-18-29-17-46c4-82 27-499 146-606 11-10 26-16 42-16l437 0c15 0 30 6 42 16 37 33 65 97 86 172 31 0 52 0 55 0 106 0 192 78 192 187 0 149-129 187-191 187z m-1-280l-20 0c-4 0-9 0-13 0 12 64 21 130 26 187l7 0c16 0 98-5 98-94 0-64-51-93-98-93z" horiz-adv-x="1000" />
<glyph glyph-name="mug" unicode="&#xe8b8;" d="m809 537c2 27 3 48 3 60 1 17-5 34-17 46s-28 20-45 20l-687 0c-17 0-34-7-46-20s-18-29-17-46c4-82 27-499 146-606 11-10 26-16 42-16l437 0c15 0 30 6 42 16 37 33 65 97 86 172 31 0 52 0 55 0 106 0 192 78 192 187 0 149-129 187-191 187z m-184-499l-437 0c-106 94-125 562-125 562l687 0c0 0-20-468-125-562z m183 188l-20 0c-6 0-12 0-20 0 19 85 30 176 36 249l4 0c5 0 130-1 130-125 0-72-55-124-130-124z" horiz-adv-x="1000" />
<glyph glyph-name="piechart" unicode="&#xe8b9;" d="m500-150c161 0 304 77 396 195l-396 305 0 500c-276 0-500-224-500-500s224-500 500-500z m-62 933l0-433c0-19 9-38 24-49l342-265c-81-79-189-124-304-124-241 0-437 197-437 438 0 220 163 403 375 433z m148 59l0-448 357-275c36 69 57 148 57 231 0 247-179 451-414 492z" horiz-adv-x="1000" />
<glyph glyph-name="rook" unicode="&#xe8ba;" d="m625 413l-250 0 0-313c0-62-125-153-125-188l0-31c0-17 14-31 31-31l438 0c17 0 31 14 31 31l0 31c0 35-125 126-125 188l0 313z m99 373l0 2-63 0 0-2c-1 1-3 2-5 2-17 0-31-14-31-32l0-31-62 0 0 31c0 16-12 28-27 30l0 2-62 0 0-2c-2 1-3 2-5 2-17 0-31-14-31-32l0-31-63 0 0 31c0 16-11 28-26 30l0 2-63 0 0-2c-1 1-3 2-5 2-17 0-31-14-31-32l0-93 0-63c0-17 7-32 18-44l63-63c12-11 27-18 44-18l250 0c17 0 33 7 44 18l63 63c11 12 18 27 18 44l0 63 0 93c0 16-11 28-26 30z" horiz-adv-x="1000" />
<glyph glyph-name="rss_circle" unicode="&#xe8bb;" d="m500 850c-276 0-500-224-500-500s224-500 500-500 500 224 500 500c0 276-224 500-500 500z m-230-811c-45 0-82 36-82 81 0 45 37 81 82 81 45 0 81-36 81-81 0-45-36-81-81-81z m204-1c0 77-29 149-83 203-54 54-126 84-203 84l0 117c223 0 404-181 404-404l-118 0z m208 0c0 273-221 495-493 495l0 117c337 0 611-274 611-612l-118 0z" horiz-adv-x="1000" />
<glyph glyph-name="pin_alt" unicode="&#xe8bc;" d="m477-133c6-6 11-10 15-12 1 0 1 0 1 0 3-2 6-3 10-3 3 0 6 1 9 3 0 0 1 0 1 0 4 2 10 6 15 12 0 0 290 316 319 590 2 14 3 28 3 43 0 193-156 350-350 350s-350-157-350-350c0-15 1-30 3-44 30-274 324-589 324-589z m23 858c124 0 225-101 225-225 0-125-101-226-225-226s-225 101-225 226c0 124 101 225 225 225z" horiz-adv-x="1000" />
<glyph glyph-name="music" unicode="&#xe8bd;" d="m25-102c47-60 143-64 216-9 29 23 49 52 61 83 6 13 11 31 11 52l0 467 562 106 0-246c0-87-67-107-90-112-2 0-4-1-6-1-1 0-3 0-3 0l1 0c-28-6-56-17-82-37-72-55-93-150-46-210 47-61 143-65 216-9 36 28 60 66 68 105 3 9 5 19 5 31l0 607c0 3-1 7-2 10 1 2 2 4 2 6l0 63c0 34-28 54-63 43l-562-106c-35-11-63-47-63-82l0-62c0-1 0-2 1-3-1-1-1-3-1-5l0-331c0-87-67-107-90-111-1 0-3-1-4-1-3 0-5-1-5-1l1 0c-28-5-56-17-81-36-72-56-93-150-46-211z" horiz-adv-x="1000" />
<glyph glyph-name="myspace_circle" unicode="&#xe8be;" d="m500 850c-276 0-500-224-500-500s224-500 500-500 500 224 500 500c0 276-224 500-500 500z m18-249c5 12 12 22 22 32 9 9 19 16 32 22 12 5 25 8 39 8 15 0 28-3 40-8 12-6 23-13 32-22 9-10 17-20 22-32 5-13 8-26 8-40 0-14-3-28-8-40-5-12-13-23-22-32-9-9-20-16-32-22-12-5-25-8-40-8-14 0-27 3-39 8-12 6-23 13-32 22-10 9-17 20-22 32-6 12-8 26-8 40 0 14 2 27 8 40z m-159 16c16 15 34 22 55 22 22 0 41-7 56-22 15-16 23-34 23-55 0-22-8-41-23-56-15-15-34-23-56-23-21 0-39 8-55 23-15 15-22 34-22 56 0 21 7 39 22 55z m-136-15c12 12 26 18 42 18 17 0 31-6 42-18 12-11 17-25 17-41 0-17-6-31-17-42-11-12-25-18-42-18-16 0-30 6-42 17-12 12-17 26-17 43 0 16 5 30 17 41z m527-564l-275 0 0 125-172 0 0 125-102 0 0 113c0 20-1 38 13 51 14 14 31 21 51 21 18 0 33-5 45-15 12-11 21-24 25-39 10 12 22 21 36 28 13 6 28 9 43 9 25 0 46-7 64-21 18-15 30-33 36-55 13 12 27 21 44 28 17 7 34 11 53 11 20 0 38-4 54-11 17-7 32-17 45-29 12-13 22-27 29-44 8-17 11-35 11-54l0-243z" horiz-adv-x="1000" />
<glyph glyph-name="pin" unicode="&#xe8bf;" d="m475 337c90 0 163 73 163 163 0 89-73 163-163 163s-162-74-162-163c0-90 73-163 162-163z m0 263c56 0 101-45 101-100s-45-101-101-101-100 45-100 101 45 100 100 100z m-22-733c5-6 10-10 15-12 0 0 0 0 0 0 3-2 7-3 10-3 3 0 6 1 10 3 0 0 0 0 0 0 5 2 10 6 15 12 0 0 291 316 320 590 2 14 3 28 3 43 0 193-157 350-351 350s-350-157-350-350c0-15 1-30 3-44 30-274 325-589 325-589z m22 921c159 0 288-130 288-288 0-11 0-22-2-37-23-209-220-456-283-531-65 76-265 321-288 532-2 14-2 25-2 36 0 158 129 288 287 288z" horiz-adv-x="1000" />
<glyph glyph-name="rss_square" unicode="&#xe8c0;" d="m813 850l-625 0c-104 0-188-84-188-187l0-625c0-104 84-188 188-188l625 0c103 0 187 84 187 188l0 625c0 103-84 187-187 187z m-543-811c-45 0-82 36-82 81 0 45 37 81 82 81 45 0 81-36 81-81 0-45-36-81-81-81z m204-1c0 77-29 149-83 203-54 54-126 84-203 84l0 117c223 0 404-181 404-404l-118 0z m208 0c0 273-221 495-493 495l0 117c337 0 611-274 611-612l-118 0z" horiz-adv-x="1000" />
<glyph glyph-name="rss" unicode="&#xe8c1;" d="m0 850l0-192c446 0 808-362 808-808l192 0c0 551-448 1000-1000 1000z m468-1000l192 0c0 364-296 660-660 660l0-191c125 0 242-49 331-138 88-88 137-206 137-331z m-335 1c74 0 133 59 133 133 0 73-59 133-133 133-73 0-133-60-133-133 0-74 60-133 133-133z" horiz-adv-x="1000" />
<glyph glyph-name="pinterest_circle" unicode="&#xe8c2;" d="m500 850c-276 0-500-224-500-500s224-500 500-500 500 224 500 500c0 276-224 500-500 500z m39-635c-37 3-52 21-80 38-16-82-35-162-92-203-18 125 25 219 46 318-35 58 4 175 76 146 89-35-77-215 35-238 116-23 164 203 92 276-105 106-305 3-280-149 6-37 44-49 15-100-67 15-87 68-84 138 4 115 103 196 203 207 126 14 244-46 261-165 18-134-57-279-192-268z" horiz-adv-x="1000" />
<glyph glyph-name="myspace_square" unicode="&#xe8c3;" d="m813 850l-625 0c-104 0-188-84-188-187l0-625c0-104 84-188 188-188l625 0c103 0 187 84 187 188l0 625c0 103-84 187-187 187z m-295-249c5 12 12 22 22 32 9 9 19 16 32 22 12 5 25 8 39 8 15 0 28-3 40-8 12-6 23-13 32-22 9-10 17-20 22-32 5-13 8-26 8-40 0-14-3-28-8-40-5-12-13-23-22-32-9-9-20-16-32-22-12-5-25-8-40-8-14 0-27 3-39 8-12 6-23 13-32 22-10 9-17 20-22 32-6 12-8 26-8 40 0 14 2 27 8 40z m-159 16c16 15 34 22 55 22 22 0 41-7 56-22 15-16 23-34 23-55 0-22-8-41-23-56-15-15-34-23-56-23-21 0-39 8-55 23-15 15-22 34-22 56 0 21 7 39 22 55z m-136-15c12 12 26 18 42 18 17 0 31-6 42-18 12-11 17-25 17-41 0-17-6-31-17-42-11-12-25-18-42-18-16 0-30 6-42 17-12 12-17 26-17 43 0 16 5 30 17 41z m527-564l-275 0 0 125-172 0 0 125-102 0 0 113c0 20-1 38 13 51 14 14 31 21 51 21 18 0 33-5 45-15 12-11 21-24 25-39 10 12 22 21 36 28 13 6 28 9 43 9 25 0 46-7 64-21 18-15 30-33 36-55 13 12 27 21 44 28 17 7 34 11 53 11 20 0 38-4 54-11 17-7 32-17 45-29 12-13 22-27 29-44 8-17 11-35 11-54l0-243z" horiz-adv-x="1000" />
<glyph glyph-name="myspace" unicode="&#xe8c4;" d="m494 600c24 24 36 54 36 89 0 34-12 63-36 88-25 24-54 36-90 36-34 0-63-12-87-36-25-25-37-54-37-88 0-35 12-65 37-89 24-25 53-37 87-37 36 0 65 12 90 37z m111-28c15-14 32-26 51-34 20-9 41-13 64-13 23 0 44 4 63 13 20 8 37 20 52 34 14 15 26 32 35 52 8 19 13 40 13 63 0 23-5 44-13 64-9 19-21 37-35 51-15 15-32 27-52 35-19 9-40 13-63 13-23 0-44-4-64-13-19-8-36-20-51-35-15-15-26-32-35-51-9-20-13-41-13-64 0-23 4-44 13-63 9-20 20-37 35-52z m-439 20c27 0 49 9 67 28 18 18 27 41 27 67 0 26-9 48-27 67-18 18-40 28-67 28-26 0-49-10-68-28-18-19-27-41-27-67 0-26 9-49 27-67 19-19 42-28 68-28z m711-196c-20 20-44 36-71 47-27 12-56 17-86 17-31 0-59-5-86-17-26-11-50-26-70-45-9 35-28 64-57 87-30 24-64 35-103 35-24 0-48-5-70-15-21-11-40-26-56-45-7 25-20 46-40 63-20 16-44 24-72 24-32 0-60-11-82-33-22-22-21-50-21-82l0-200 164 0 0-164 275 0 0-218 440 0 0 389c0 31-5 60-17 87-12 27-28 50-48 70z" horiz-adv-x="1000" />
<glyph glyph-name="pinterest_square" unicode="&#xe8c5;" d="m813 850l-625 0c-104 0-188-84-188-187l0-625c0-104 84-188 188-188l625 0c103 0 187 84 187 188l0 625c0 103-84 187-187 187z m-274-635c-37 3-52 21-80 38-16-82-35-162-92-203-18 125 25 219 46 318-35 58 4 175 76 146 89-35-77-215 35-238 116-23 164 203 92 276-105 106-305 3-280-149 6-37 44-49 15-100-67 15-87 68-84 138 4 115 103 196 203 207 126 14 244-46 261-165 18-134-57-279-192-268z" horiz-adv-x="1000" />
<glyph glyph-name="search_alt" unicode="&#xe8c6;" d="m63-88l562 0c35 0 63 28 63 63l0 84c13 7 25 14 37 23l192-192c6-6 14-9 22-9s16 3 22 9c12 13 12 32 0 45l-192 192c27 36 44 81 44 129 0 87-52 162-125 197l0 335c0 34-28 62-63 62l-562 0c-35 0-63-28-63-62l0-813c0-35 28-63 63-63z m531 188c-86 0-156 70-156 156s70 157 156 157 156-71 156-157-70-156-156-156z m-63 500l-375 0c-17 0-31 14-31 31 0 18 14 32 31 32l375 0c18 0 32-14 32-32 0-17-14-31-32-31z m-375-125l375 0c6 0 12-2 16-5-40-9-77-29-106-57l-285 0c-17 0-31 14-31 31 0 17 14 31 31 31z m0-187l222 0c-1-11-3-21-3-32s2-21 3-31l-222 0c-17 0-31 14-31 31 0 18 14 32 31 32z" horiz-adv-x="1000" />
<glyph glyph-name="search_blanck" unicode="&#xe8c7;" d="m594 850c-225 0-406-182-406-406 0-97 33-185 90-255l-269-269c-17-17-17-44 0-61 17-17 44-17 61 0l269 269c70-57 158-90 255-90 224 0 406 181 406 406s-182 406-406 406z m0-750c-190 0-344 154-344 344s154 344 344 344 344-155 344-344-155-344-344-344z" horiz-adv-x="1000" />
<glyph glyph-name="pinterest" unicode="&#xe8c8;" d="m252 272c48 85-16 104-26 166-41 253 292 426 467 249 120-123 41-499-154-460-186 37 92 337-57 396-121 48-185-146-128-243-33-166-106-322-76-530 95 69 127 201 153 339 48-29 73-60 134-64 225-18 350 224 319 447-27 198-224 298-434 275-166-19-332-153-339-345-4-118 29-206 141-230z" horiz-adv-x="1000" />
<glyph glyph-name="ol" unicode="&#xe8c9;" d="m844 413l-500 0c-17 0-31-14-31-32 0-17 14-31 31-31l500 0c17 0 31 14 31 31 0 18-14 32-31 32z m0 250l-500 0c-17 0-31-14-31-32 0-17 14-31 31-31l500 0c17 0 31 14 31 31 0 18-14 32-31 32z m0-500l-500 0c-17 0-31-14-31-32 0-17 14-31 31-31l500 0c17 0 31 14 31 31 0 18-14 32-31 32z m-626 391l0 154-18 0-34-18 4-16 27 15 0 0 0-135z m-50-221l-16-16 0-13 98 0 0 18-69 0 0 0 12 11c33 32 53 55 53 83 0 22-14 45-47 45-18 0-33-7-44-16l7-14c7 5 19 13 33 13 23 0 30-15 30-31 0-23-18-43-57-80z m26-262c-15 0-29 6-35 10l-5-16c7-5 23-11 40-11 37 0 56 22 56 46 0 22-15 36-34 40l0 0c19 7 28 21 28 37 0 19-14 37-44 37-17 0-32-6-40-12l5-16c7 5 19 11 31 11 19 0 27-11 27-24 0-18-19-26-34-26l-12 0 0-15 12 0c20 0 39-10 39-31 1-13-8-30-34-30z" horiz-adv-x="1000" />
<glyph glyph-name="paperclip" unicode="&#xe8ca;" d="m427 639c-65 64-145 69-201 13-56-56-51-137 13-201l347-347c12-12 31-12 43 0s12 31 0 43l-347 347c-31 31-51 78-13 115 37 38 84 18 115-13l385-386c111-111 139-162 73-228-67-66-138-50-244 57l-429 428c-69 69-117 182-26 273 108 108 231 2 266-33l394-394c12-12 31-12 43 0s12 31 0 43l-394 394c-119 119-254 132-352 33-99-99-89-243 27-359l428-428c37-37 115-115 204-115 41 0 83 16 126 58 120 121 9 233-73 314l-385 386z" horiz-adv-x="1000" />
<glyph glyph-name="plus_box" unicode="&#xe8cb;" d="m250 538l0-438c0-34 28-62 63-62l437 0c35 0 63 28 63 62l0 438c0 34-28 62-63 62l-437 0c-35 0-63-28-63-62z m500-438l-437 0 0 438 437 0 0-438z m-344 188l94 0 0-94c0-17 14-31 31-31s32 14 32 31l0 94 93 0c18 0 32 14 32 31 0 17-14 31-32 31l-93 0 0 94c0 17-14 31-32 31s-31-14-31-31l0-94-94 0c-17 0-31-14-31-31 0-17 14-31 31-31z" horiz-adv-x="1000" />
<glyph glyph-name="search" unicode="&#xe8cc;" d="m63-88l562 0c35 0 63 28 63 63l0 84c13 7 25 14 37 23l192-192c6-6 14-9 22-9s16 3 22 9c12 13 12 32 0 45l-192 192c27 36 44 81 44 129 0 87-52 162-125 197l0 335c0 34-28 62-63 62l-562 0c-35 0-63-28-63-62l0-813c0-35 28-63 63-63z m531 188c-86 0-156 70-156 156s70 157 156 157 156-71 156-157-70-156-156-156z m-531 688l562 0 0-313-460 0c-22 0-40-14-40-31 0-17 18-31 40-31l276 0c-34-33-56-77-63-125l-222 0c-17 0-31-14-31-32 0-17 14-31 31-31l222 0c15-106 106-187 216-187 10 0 21 1 31 3l0-66-562 0 0 813z m93-188l375 0c18 0 32 14 32 31 0 18-14 32-32 32l-375 0c-17 0-31-14-31-32 0-17 14-31 31-31z" horiz-adv-x="1000" />
<glyph glyph-name="share_circle" unicode="&#xe8cd;" d="m500 850c-276 0-500-224-500-500s224-500 500-500 500 224 500 500c0 276-224 500-500 500z m104-613c15 11 35 18 55 18 51 0 93-41 93-92 0-51-42-92-93-92-51 0-92 41-92 92 0 0 0 0 0 0l-235 114c-15-9-32-15-50-15-51 0-93 42-93 93 0 51 42 92 93 92 21 0 41-8 57-20l228 110c0 0 0 0 0 0 0 51 41 92 92 92 51 0 93-41 93-92s-42-92-93-92c-21 0-40 7-55 18l-230-111c0-1 0-3 0-4l230-111z" horiz-adv-x="1000" />
<glyph glyph-name="plus" unicode="&#xe8ce;" d="m281 288l219 0 0-219c0-17 14-31 31-31s32 14 32 31l0 219 218 0c18 0 32 14 32 31 0 17-14 31-32 31l-218 0 0 219c0 17-14 31-32 31s-31-14-31-31l0-219-219 0c-17 0-31-14-31-31 0-17 14-31 31-31z" horiz-adv-x="1000" />
<glyph glyph-name="pause" unicode="&#xe8cf;" d="m375 538c-34 0-62-28-62-63l0-250c0-34 28-62 62-62s63 28 63 62l0 250c0 35-28 63-63 63z m188-313c0-34 28-62 62-62s63 28 63 62l0 250c0 35-28 63-63 63s-62-28-62-63l0-250z" horiz-adv-x="1000" />
<glyph glyph-name="pencil_box_alt" unicode="&#xe8d0;" d="m938 850l-875 0c-35 0-63-28-63-62l0-876c0-34 28-62 63-62l875 0c34 0 62 28 62 62l0 876c0 34-28 62-62 62z m-764-287c-31 31-31 82 0 113 31 31 82 31 113 0l82-83-112-112-83 82z m470-470l-321 321 113 113 321-321 56-168-169 55z" horiz-adv-x="1000" />
<glyph glyph-name="printer_alt" unicode="&#xe8d1;" d="m938 538l-63 0 0 250c0 34-28 62-62 62l-625 0c-35 0-63-28-63-62l0-250-62 0c-35 0-63-28-63-63l0-312c0-35 28-63 63-63l62 0 0-188c0-34 28-62 63-62l625 0c34 0 62 28 62 62l0 188 63 0c34 0 62 28 62 63l0 312c0 35-28 63-62 63z m-750-313l625 0 0-313-625 0 0 313z m500 156c0 18 14 32 31 32s31-14 31-32c0-17-14-31-31-31s-31 14-31 31z m-532-31c-17 0-31 14-31 31 0 18 14 32 31 32s32-14 32-32c0-17-14-31-32-31z m688 0c-17 0-31 14-31 31 0 18 14 32 31 32s31-14 31-32c0-17-14-31-31-31z m-656 438l625 0 0-250-625 0 0 250z m562-657c0 18-14 32-31 32l-438 0c-17 0-31-14-31-32 0-17 14-31 31-31l438 0c17 0 31 14 31 31z m-31-93l-438 0c-17 0-31-14-31-32 0-17 14-31 31-31l438 0c17 0 31 14 31 31 0 18-14 32-31 32z" horiz-adv-x="1000" />
<glyph glyph-name="share_square" unicode="&#xe8d2;" d="m813 850l-625 0c-104 0-188-84-188-187l0-625c0-104 84-188 188-188l625 0c103 0 187 84 187 188l0 625c0 103-84 187-187 187z m-209-613c15 11 35 18 55 18 51 0 93-41 93-92 0-51-42-92-93-92-51 0-92 41-92 92 0 0 0 0 0 0l-235 114c-15-9-32-15-50-15-51 0-93 42-93 93 0 51 42 92 93 92 21 0 41-8 57-20l228 110c0 0 0 0 0 0 0 51 41 92 92 92 51 0 93-41 93-92s-42-92-93-92c-21 0-40 7-55 18l-230-111c0-1 0-3 0-4l230-111z" horiz-adv-x="1000" />
<glyph glyph-name="share" unicode="&#xe8d3;" d="m737 555c28-21 62-33 99-33 91 0 164 73 164 164 0 91-73 164-164 164-91 0-164-73-164-164 0 0 0 0 0 0l-406-196c-28 22-63 36-102 36-90 0-164-74-164-165s74-164 164-164c33 0 63 10 89 27l419-203c0 0 0 0 0 0 0-91 73-164 164-164 91 0 164 73 164 164 0 91-73 164-164 164-37 0-71-12-99-33l-409 198c0 2 0 5 0 7l409 198z" horiz-adv-x="1000" />
<glyph glyph-name="printer" unicode="&#xe8d4;" d="m938 538l-63 0 0 250c0 34-28 62-62 62l-625 0c-35 0-63-28-63-62l0-250-62 0c-35 0-63-28-63-63l0-312c0-35 28-63 63-63l62 0 0-188c0-34 28-62 63-62l625 0c34 0 62 28 62 62l0 188 63 0c34 0 62 28 62 63l0 312c0 35-28 63-62 63z m-750-313l625 0 0-313-625 0 0 313z m625 63l-625 0c-35 0-63-28-63-63l0-62-62 0 0 312 875 0 0-312-63 0 0 62c0 35-28 63-62 63z m-625 500l625 0 0-250-625 0 0 250z m500-407a31-31 0 1 0 62 0 31-31 0 1 0-62 0z m-563 0a31-31 0 1 0 63 0 31-31 0 1 0-63 0z m688 0a31-31 0 1 0 62 0 31-31 0 1 0-62 0z m-63-250c0 18-14 32-31 32l-438 0c-17 0-31-14-31-32 0-17 14-31 31-31l438 0c17 0 31 14 31 31z m-31-93l-438 0c-17 0-31-14-31-32 0-17 14-31 31-31l438 0c17 0 31 14 31 31 0 18-14 32-31 32z" horiz-adv-x="1000" />
<glyph glyph-name="pencil_box" unicode="&#xe8d5;" d="m644 93l169-55-56 168-321 321-113-113z m-387 388l112 112-82 83c-31 31-82 31-113 0-31-31-31-82 0-113l83-82z m681 369l-875 0c-35 0-63-28-63-62l0-876c0-34 28-62 63-62l875 0c34 0 62 28 62 62l0 876c0 34-28 62-62 62z m0-938l-875 0 0 876 875 0 0-876z" horiz-adv-x="1000" />
<glyph glyph-name="pencil_edit" unicode="&#xe8d6;" d="m662 188l-56 169-321 321-113-113 322-321z m-639 639c-31-31-31-82 0-113l83-82 113 112-83 83c-31 31-82 31-113 0z m915-164l-444 0 63-63 381 0 0-688-688 0 0 381-62 63 0-444c0-34 28-62 62-62l688 0c34 0 62 28 62 62l0 688c0 35-28 63-62 63z" horiz-adv-x="1000" />
<glyph glyph-name="profile" unicode="&#xe8d7;" d="m667 668c0 98-85 182-182 182s-182-84-182-182c0-97 85-182 182-182s182 85 182 182z m-182-242c-159 0-303-172-303-386s606-213 606 0-144 386-303 386z" horiz-adv-x="970" />
<glyph glyph-name="shield_alt" unicode="&#xe8d8;" d="m483-148c5-1 11-2 17-2s12 1 17 2c387 111 444 502 420 693-4 32-30 55-62 55-9 1-62 10-62 125 0 17-7 33-19 44-13 14-91 81-294 81s-281-67-294-81c-12-11-18-27-18-44 0-115-54-124-65-125-31 0-56-23-60-55-24-191 33-582 420-693z m-358 686c0 0 125 0 125 187 0 0 63 63 250 63l0-438 368 0c-25-156-107-363-368-438l0 438-368 0c-17 106-7 188-7 188z" horiz-adv-x="1000" />
<glyph glyph-name="shield" unicode="&#xe8d9;" d="m483-148c5-1 11-2 17-2s12 1 17 2c387 111 444 502 420 693-4 32-30 55-62 55-9 1-62 10-62 125 0 17-7 33-19 44-13 14-91 81-294 81s-281-67-294-81c-12-11-18-27-18-44 0-115-54-124-65-125-31 0-56-23-60-55-24-191 33-582 420-693z m-358 686c0 0 125 0 125 187 0 0 63 63 250 63s250-63 250-63c0-187 125-187 125-187s63-500-375-626c-437 126-375 626-375 626z m375-313c35 0 63 28 63 63l0 312c0 35-28 63-63 63s-62-28-62-63l0-312c0-35 28-63 62-63z m-62-125a63-63 0 1 0 125 0 63-63 0 1 0-125 0z" horiz-adv-x="1000" />
<glyph glyph-name="pushpin_alt" unicode="&#xe8da;" d="m250 240c0-48 121-73 250-77 0 0 0 0 0 0l0-188c0-35 14-125 31-125s32 90 32 125l0 188c0 0-1 0-1 0 130 4 251 29 251 77 0 51-47 88-125 108l0 324c78 27 125 70 125 100 0 104-563 104-563 0 0-33 46-75 125-101l0-323c-79-20-125-57-125-108z" horiz-adv-x="1000" />
<glyph glyph-name="pencil" unicode="&#xe8db;" d="m941-91l-65 198-531 530-32-33-100-99 530-531z m-817 684l133 133-66 65c-36 37-96 37-132 0-37-36-37-96 0-132l65-66z" horiz-adv-x="1000" />
<glyph glyph-name="pens_alt" unicode="&#xe8dc;" d="m125 725l0-62 0-500 9-24 116-289 125 313 0 0c0 0 0 0 0 0l0 500 0 62c0 69-56 125-125 125s-125-56-125-125z m63 0c0 34 28 63 62 63s63-29 63-63l0-62-125 0 0 62z m62-707l-32 81-13 31-1 2 46 23 46-23-1-2-13-31-32-81z m537 646l-59 151-1 0c-3 20-19 35-39 35-21 0-38-16-41-35l0 0-59-151-25-64 0-625c0-69 55-125 125-125s125 56 125 125c34 0 62 28 62 63l0 187c0 35-28 63-62 63l0 312-26 64z m-58-23l16-41-115 0 16 41 9 22 33 81 32-81 9-22z" horiz-adv-x="1000" />
<glyph glyph-name="pushpin" unicode="&#xe8dd;" d="m272 295c-14-15-19-36-14-56 4-19 18-36 36-43 45-19 120-31 206-33 0 0 0 0 0 0l0-188c0-35 14-125 31-125s32 90 32 125l0 188c0 0-1 0-1 0 86 2 162 14 206 33 19 7 32 24 37 43 4 20-1 41-14 56-26 29-70 45-103 53l0 324 0 0c32 11 60 25 82 41 19 14 28 37 25 60s-20 42-42 50c-31 10-100 27-222 27-128 0-199-20-224-28-21-8-37-27-41-50-3-22 6-45 24-59 23-17 51-31 85-42l0 0 0-323c-33-8-78-24-103-53z m122 435c-32 11-53 23-66 33 33 11 100 25 203 25 101 0 168-13 202-25-13-9-34-21-66-32l-42-14 0-417 47-12c35-9 61-22 72-35-29-12-99-28-213-28s-184 16-212 28c11 13 37 26 71 35l48 12 0 416-44 14z" horiz-adv-x="1000" />
<glyph glyph-name="skype_circle" unicode="&#xe8de;" d="m500 850c-276 0-500-224-500-500s224-500 500-500 500 224 500 500c0 276-224 500-500 500z m136-796c-32 0-62 9-87 25-17-3-33-4-50-4-153 0-276 122-276 274 0 14 1 29 4 43-17 26-27 56-27 89 0 91 74 165 164 165 34 0 64-10 90-27 15 2 29 4 45 4 152 0 275-123 275-274 0-13-1-25-3-38 19-26 29-58 29-92 0-91-74-165-164-165z m-172 347c-80 20-36 88 28 87 63-1 95-67 123-64 29 4 53 46 8 84-38 33-87 51-162 45-59-6-115-44-122-117-7-74 81-112 150-122 49-7 115-31 75-76-36-42-106-16-124-5-18 11-39 52-73 50-34-2-51-47-9-86 38-36 79-55 166-50 88 4 166 81 136 154s-116 81-196 100z" horiz-adv-x="1000" />
</font>
</defs>
</svg>
